  0
SECTION
  2
HEADER
  9
$ACADVER
  1
AC1015
  9
$ACADMAINTVER
 70
    20
  9
$DWGCODEPAGE
  3
ANSI_1251
  9
$INSBASE
 10
0.0
 20
0.0
 30
0.0
  9
$EXTMIN
 10
-105.0666491299246
 20
-0.0128164049386896
 30
-0.0015258207003583
  9
$EXTMAX
 10
594.0181288244414
 20
420.0128183607161
 30
0.0000000349246037
  9
$LIMMIN
 10
0.0
 20
0.0
  9
$LIMMAX
 10
594.0
 20
420.0
  9
$ORTHOMODE
 70
     1
  9
$REGENMODE
 70
     1
  9
$FILLMODE
 70
     1
  9
$QTEXTMODE
 70
     0
  9
$MIRRTEXT
 70
     0
  9
$LTSCALE
 40
32.67
  9
$ATTMODE
 70
     1
  9
$TEXTSIZE
 40
0.2
  9
$TRACEWID
 40
0.05
  9
$TEXTSTYLE
  7
STANDARD
  9
$CLAYER
  8
0
  9
$CELTYPE
  6
BYLAYER
  9
$CECOLOR
 62
   256
  9
$CELTSCALE
 40
1.0
  9
$DISPSILH
 70
     0
  9
$DIMSCALE
 40
1.0
  9
$DIMASZ
 40
4.0
  9
$DIMEXO
 40
0.0
  9
$DIMDLI
 40
22.572
  9
$DIMRND
 40
0.0
  9
$DIMDLE
 40
0.0
  9
$DIMEXE
 40
0.5
  9
$DIMTP
 40
0.001
  9
$DIMTM
 40
0.001
  9
$DIMTXT
 40
3.5
  9
$DIMCEN
 40
5.346
  9
$DIMTSZ
 40
0.0
  9
$DIMTOL
 70
     1
  9
$DIMLIM
 70
     0
  9
$DIMTIH
 70
     1
  9
$DIMTOH
 70
     1
  9
$DIMSE1
 70
     0
  9
$DIMSE2
 70
     0
  9
$DIMTAD
 70
     0
  9
$DIMZIN
 70
     0
  9
$DIMBLK
  1
_FILLED
  9
$DIMASO
 70
     1
  9
$DIMSHO
 70
     1
  9
$DIMPOST
  1

  9
$DIMAPOST
  1

  9
$DIMALT
 70
     0
  9
$DIMALTD
 70
     2
  9
$DIMALTF
 40
25.4
  9
$DIMLFAC
 40
1.0
  9
$DIMTOFL
 70
     0
  9
$DIMTVP
 40
0.0
  9
$DIMTIX
 70
     0
  9
$DIMSOXD
 70
     0
  9
$DIMSAH
 70
     0
  9
$DIMBLK1
  1

  9
$DIMBLK2
  1

  9
$DIMSTYLE
  2
STANDARD
  9
$DIMCLRD
 70
     0
  9
$DIMCLRE
 70
     0
  9
$DIMCLRT
 70
     0
  9
$DIMTFAC
 40
1.0
  9
$DIMGAP
 40
0.625
  9
$DIMJUST
 70
     0
  9
$DIMSD1
 70
     0
  9
$DIMSD2
 70
     0
  9
$DIMTOLJ
 70
     1
  9
$DIMTZIN
 70
     0
  9
$DIMALTZ
 70
     0
  9
$DIMALTTZ
 70
     0
  9
$DIMUPT
 70
     0
  9
$DIMDEC
 70
     4
  9
$DIMTDEC
 70
     4
  9
$DIMALTU
 70
     2
  9
$DIMALTTD
 70
     2
  9
$DIMTXSTY
  7
STANDARD
  9
$DIMAUNIT
 70
     0
  9
$DIMADEC
 70
     0
  9
$DIMALTRND
 40
0.0
  9
$DIMAZIN
 70
     0
  9
$DIMDSEP
 70
    44
  9
$DIMATFIT
 70
     3
  9
$DIMFRAC
 70
     0
  9
$DIMLDRBLK
  1

  9
$DIMLUNIT
 70
     2
  9
$DIMLWD
 70
    -2
  9
$DIMLWE
 70
    -2
  9
$DIMTMOVE
 70
     0
  9
$LUNITS
 70
     2
  9
$LUPREC
 70
     4
  9
$SKETCHINC
 40
0.1
  9
$FILLETRAD
 40
0.0
  9
$AUNITS
 70
     0
  9
$AUPREC
 70
     0
  9
$MENU
  1
.
  9
$ELEVATION
 40
0.0
  9
$PELEVATION
 40
0.0
  9
$THICKNESS
 40
0.0
  9
$LIMCHECK
 70
     0
  9
$CHAMFERA
 40
0.0
  9
$CHAMFERB
 40
0.0
  9
$CHAMFERC
 40
0.0
  9
$CHAMFERD
 40
0.0
  9
$SKPOLY
 70
     0
  9
$TDCREATE
 40
2457218.576270081
  9
$TDUCREATE
 40
2457218.451270081
  9
$TDUPDATE
 40
2457218.578137361
  9
$TDUUPDATE
 40
2457218.453137361
  9
$TDINDWG
 40
0.0018686690
  9
$TDUSRTIMER
 40
0.0018686690
  9
$USRTIMER
 70
     1
  9
$ANGBASE
 50
0.0
  9
$ANGDIR
 70
     0
  9
$PDMODE
 70
     3
  9
$PDSIZE
 40
1.0
  9
$PLINEWID
 40
0.0
  9
$SPLFRAME
 70
     0
  9
$SPLINETYPE
 70
     6
  9
$SPLINESEGS
 70
     8
  9
$HANDSEED
  5
BF9
  9
$SURFTAB1
 70
     6
  9
$SURFTAB2
 70
     6
  9
$SURFTYPE
 70
     6
  9
$SURFU
 70
     6
  9
$SURFV
 70
     6
  9
$UCSBASE
  2

  9
$UCSNAME
  2

  9
$UCSORG
 10
0.0
 20
0.0
 30
0.0
  9
$UCSXDIR
 10
1.0
 20
0.0
 30
0.0
  9
$UCSYDIR
 10
0.0
 20
1.0
 30
0.0
  9
$UCSORTHOREF
  2

  9
$UCSORTHOVIEW
 70
     0
  9
$UCSORGTOP
 10
0.0
 20
0.0
 30
0.0
  9
$UCSORGBOTTOM
 10
0.0
 20
0.0
 30
0.0
  9
$UCSORGLEFT
 10
0.0
 20
0.0
 30
0.0
  9
$UCSORGRIGHT
 10
0.0
 20
0.0
 30
0.0
  9
$UCSORGFRONT
 10
0.0
 20
0.0
 30
0.0
  9
$UCSORGBACK
 10
0.0
 20
0.0
 30
0.0
  9
$PUCSBASE
  2

  9
$PUCSNAME
  2

  9
$PUCSORG
 10
0.0
 20
0.0
 30
0.0
  9
$PUCSXDIR
 10
1.0
 20
0.0
 30
0.0
  9
$PUCSYDIR
 10
0.0
 20
1.0
 30
0.0
  9
$PUCSORTHOREF
  2

  9
$PUCSORTHOVIEW
 70
     0
  9
$PUCSORGTOP
 10
0.0
 20
0.0
 30
0.0
  9
$PUCSORGBOTTOM
 10
0.0
 20
0.0
 30
0.0
  9
$PUCSORGLEFT
 10
0.0
 20
0.0
 30
0.0
  9
$PUCSORGRIGHT
 10
0.0
 20
0.0
 30
0.0
  9
$PUCSORGFRONT
 10
0.0
 20
0.0
 30
0.0
  9
$PUCSORGBACK
 10
0.0
 20
0.0
 30
0.0
  9
$USERI1
 70
     0
  9
$USERI2
 70
     0
  9
$USERI3
 70
     0
  9
$USERI4
 70
     0
  9
$USERI5
 70
     0
  9
$USERR1
 40
0.0
  9
$USERR2
 40
0.0
  9
$USERR3
 40
0.0
  9
$USERR4
 40
0.0
  9
$USERR5
 40
0.0
  9
$WORLDVIEW
 70
     1
  9
$SHADEDGE
 70
     3
  9
$SHADEDIF
 70
    70
  9
$TILEMODE
 70
     1
  9
$MAXACTVP
 70
    64
  9
$PINSBASE
 10
0.0
 20
0.0
 30
0.0
  9
$PLIMCHECK
 70
     0
  9
$PEXTMIN
 10
1.000000000000000E+20
 20
1.000000000000000E+20
 30
1.000000000000000E+20
  9
$PEXTMAX
 10
-1.000000000000000E+20
 20
-1.000000000000000E+20
 30
-1.000000000000000E+20
  9
$PLIMMIN
 10
0.0
 20
0.0
  9
$PLIMMAX
 10
12.0
 20
9.0
  9
$UNITMODE
 70
     0
  9
$VISRETAIN
 70
     1
  9
$PLINEGEN
 70
     0
  9
$PSLTSCALE
 70
     1
  9
$TREEDEPTH
 70
  3020
  9
$CMLSTYLE
  2
Standard
  9
$CMLJUST
 70
     0
  9
$CMLSCALE
 40
1.0
  9
$PROXYGRAPHICS
 70
     1
  9
$MEASUREMENT
 70
     1
  9
$CELWEIGHT
370
    -1
  9
$ENDCAPS
280
     0
  9
$JOINSTYLE
280
     0
  9
$LWDISPLAY
290
     0
  9
$INSUNITS
 70
     4
  9
$HYPERLINKBASE
  1

  9
$STYLESHEET
  1

  9
$XEDIT
290
     1
  9
$CEPSNTYPE
380
     0
  9
$PSTYLEMODE
290
     1
  9
$FINGERPRINTGUID
  2
{7C2CE32B-37BD-45CE-BD85-8F7AA0131AB3}
  9
$VERSIONGUID
  2
{777EB79C-3698-4EE5-BE1D-9003E4EC4335}
  9
$EXTNAMES
290
     1
  9
$PSVPSCALE
 40
0.0
  9
$OLESTARTUP
290
     0
  0
ENDSEC
  0
SECTION
  2
CLASSES
  0
CLASS
  1
ACDBDICTIONARYWDFLT
  2
AcDbDictionaryWithDefault
  3
ObjectDBX Classes
 90
        0
280
     0
281
     0
  0
CLASS
  1
ACDBPLACEHOLDER
  2
AcDbPlaceHolder
  3
ObjectDBX Classes
 90
        0
280
     0
281
     0
  0
CLASS
  1
LAYOUT
  2
AcDbLayout
  3
ObjectDBX Classes
 90
        0
280
     0
281
     0
  0
CLASS
  1
MATERIAL
  2
AcDbMaterial
  3
ObjectDBX Classes
 90
     1153
280
     0
281
     0
  0
CLASS
  1
VISUALSTYLE
  2
AcDbVisualStyle
  3
ObjectDBX Classes
 90
     4095
280
     0
281
     0
  0
CLASS
  1
TABLESTYLE
  2
AcDbTableStyle
  3
ObjectDBX Classes
 90
     4095
280
     0
281
     0
  0
CLASS
  1
SCALE
  2
AcDbScale
  3
ObjectDBX Classes
 90
     1153
280
     0
281
     0
  0
CLASS
  1
MLEADERSTYLE
  2
AcDbMLeaderStyle
  3
ACDB_MLEADERSTYLE_CLASS
 90
     4095
280
     0
281
     0
  0
CLASS
  1
ACDBSECTIONVIEWSTYLE
  2
AcDbSectionViewStyle
  3
ObjectDBX Classes
 90
     1025
280
     0
281
     0
  0
CLASS
  1
ACDBDETAILVIEWSTYLE
  2
AcDbDetailViewStyle
  3
ObjectDBX Classes
 90
     1025
280
     0
281
     0
  0
CLASS
  1
DICTIONARYVAR
  2
AcDbDictionaryVar
  3
ObjectDBX Classes
 90
        0
280
     0
281
     0
  0
CLASS
  1
CELLSTYLEMAP
  2
AcDbCellStyleMap
  3
ObjectDBX Classes
 90
     1152
280
     0
281
     0
  0
ENDSEC
  0
SECTION
  2
TABLES
  0
TABLE
  2
VPORT
  5
8
330
0
100
AcDbSymbolTable
 70
     1
  0
VPORT
  5
1F4
330
8
100
AcDbSymbolTableRecord
100
AcDbViewportTableRecord
  2
*ACTIVE
 70
     0
 10
0.0
 20
0.0
 11
1.0
 21
1.0
 12
235.2210232736969
 22
219.4538480829951
 13
0.0
 23
0.0
 14
1.0
 24
1.0
 15
0.0
 25
0.0
 16
0.0
 26
0.0
 36
1.0
 17
0.0
 27
0.0
 37
0.0
 40
476.5092846718715
 41
2.240310077519379
 42
50.0
 43
0.0
 44
0.0
 50
0.0
 51
0.0
 71
     0
 72
   100
 73
     1
 74
     1
 75
     0
 76
     0
 77
     0
 78
     0
281
     0
 65
     1
110
0.0
120
0.0
130
0.0
111
1.0
121
0.0
131
0.0
112
0.0
122
1.0
132
0.0
 79
     0
146
0.0
1001
ACAD_NAV_VCDISPLAY
1070
     3
  0
ENDTAB
  0
TABLE
  2
LTYPE
  5
5
330
0
100
AcDbSymbolTable
 70
     8
  0
LTYPE
  5
14
330
5
100
AcDbSymbolTableRecord
100
AcDbLinetypeTableRecord
  2
BYBLOCK
 70
     0
  3

 72
    65
 73
     0
 40
0.0
  0
LTYPE
  5
15
330
5
100
AcDbSymbolTableRecord
100
AcDbLinetypeTableRecord
  2
BYLAYER
 70
     0
  3

 72
    65
 73
     0
 40
0.0
  0
LTYPE
  5
16
330
5
100
AcDbSymbolTableRecord
100
AcDbLinetypeTableRecord
  2
CONTINUOUS
 70
     0
  3
Solid line
 72
    65
 73
     0
 40
0.0
  0
LTYPE
  5
1F5
330
5
100
AcDbSymbolTableRecord
100
AcDbLinetypeTableRecord
  2
CENTER
 70
     0
  3
____ _ ____ _ ____ _ ____ _ ____ _ ____ _ ____
 72
    65
 73
     4
 40
0.6
 49
0.375
 74
     0
 49
-0.075
 74
     0
 49
0.075
 74
     0
 49
-0.075
 74
     0
  0
LTYPE
  5
1F6
330
5
100
AcDbSymbolTableRecord
100
AcDbLinetypeTableRecord
  2
HIDDEN
 70
     0
  3
- - - - - - - - - - - - - - - - - - - -
 72
    65
 73
     2
 40
0.2
 49
0.1
 74
     0
 49
-0.1
 74
     0
  0
LTYPE
  5
1F7
330
5
100
AcDbSymbolTableRecord
100
AcDbLinetypeTableRecord
  2
PHANTOM
 70
     0
  3
_____ _ _ _____ _ _ _____ _ _ _____
 72
    65
 73
     6
 40
0.8
 49
0.45
 74
     0
 49
-0.05
 74
     0
 49
0.1
 74
     0
 49
-0.05
 74
     0
 49
0.1
 74
     0
 49
-0.05
 74
     0
  0
LTYPE
  5
1F8
330
5
100
AcDbSymbolTableRecord
100
AcDbLinetypeTableRecord
  2
DOT
 70
     0
  3
. . . . . . . . . . . . . . . . . . . .
 72
    65
 73
     2
 40
0.2
 49
0.1
 74
     0
 49
-0.1
 74
     0
  0
LTYPE
  5
1F9
330
5
100
AcDbSymbolTableRecord
100
AcDbLinetypeTableRecord
  2
DASHED
 70
     0
  3
- - - - - - - - - - - - - - - - - - - -
 72
    65
 73
     2
 40
0.2
 49
0.1
 74
     0
 49
-0.1
 74
     0
  0
ENDTAB
  0
TABLE
  2
LAYER
  5
2
330
0
100
AcDbSymbolTable
 70
    15
  0
LAYER
  5
10
102
{ACAD_XDICTIONARY
360
ABA
102
}
330
2
100
AcDbSymbolTableRecord
100
AcDbLayerTableRecord
  2
0
 70
     0
 62
     7
  6
CONTINUOUS
370
    -3
390
F
  0
LAYER
  5
1FA
102
{ACAD_XDICTIONARY
360
ABC
102
}
330
2
100
AcDbSymbolTableRecord
100
AcDbLayerTableRecord
  2
DEFAULT_1
 70
     0
 62
     7
  6
CENTER
370
    -3
390
F
  0
LAYER
  5
1FB
102
{ACAD_XDICTIONARY
360
ABE
102
}
330
2
100
AcDbSymbolTableRecord
100
AcDbLayerTableRecord
  2
DEFAULT_2
 70
     0
 62
     8
  6
HIDDEN
370
    -3
390
F
  0
LAYER
  5
1FC
102
{ACAD_XDICTIONARY
360
AC0
102
}
330
2
100
AcDbSymbolTableRecord
100
AcDbLayerTableRecord
  2
DEFAULT_3
 70
     0
 62
     7
  6
PHANTOM
370
    -3
390
F
  0
LAYER
  5
1FD
102
{ACAD_XDICTIONARY
360
AC2
102
}
330
2
100
AcDbSymbolTableRecord
100
AcDbLayerTableRecord
  2
01___PRT_ALL_DTM_PLN
 70
     0
 62
     7
  6
CONTINUOUS
370
    -3
390
F
  0
LAYER
  5
1FE
102
{ACAD_XDICTIONARY
360
AC4
102
}
330
2
100
AcDbSymbolTableRecord
100
AcDbLayerTableRecord
  2
01___PRT_DEF_DTM_PLN
 70
     0
 62
     7
  6
CONTINUOUS
370
    -3
390
F
  0
LAYER
  5
1FF
102
{ACAD_XDICTIONARY
360
AC6
102
}
330
2
100
AcDbSymbolTableRecord
100
AcDbLayerTableRecord
  2
02___PRT_ALL_AXES
 70
     0
 62
     7
  6
CONTINUOUS
370
    -3
390
F
  0
LAYER
  5
200
102
{ACAD_XDICTIONARY
360
AC8
102
}
330
2
100
AcDbSymbolTableRecord
100
AcDbLayerTableRecord
  2
03___PRT_ALL_CURVES
 70
     0
 62
     7
  6
CONTINUOUS
370
    -3
390
F
  0
LAYER
  5
201
102
{ACAD_XDICTIONARY
360
ACA
102
}
330
2
100
AcDbSymbolTableRecord
100
AcDbLayerTableRecord
  2
04___PRT_ALL_DTM_PNT
 70
     0
 62
     7
  6
CONTINUOUS
370
    -3
390
F
  0
LAYER
  5
202
102
{ACAD_XDICTIONARY
360
ACC
102
}
330
2
100
AcDbSymbolTableRecord
100
AcDbLayerTableRecord
  2
05___PRT_ALL_DTM_CSYS
 70
     0
 62
     7
  6
CONTINUOUS
370
    -3
390
F
  0
LAYER
  5
203
102
{ACAD_XDICTIONARY
360
ACE
102
}
330
2
100
AcDbSymbolTableRecord
100
AcDbLayerTableRecord
  2
05___PRT_DEF_DTM_CSYS
 70
     0
 62
     7
  6
CONTINUOUS
370
    -3
390
F
  0
LAYER
  5
204
102
{ACAD_XDICTIONARY
360
AD0
102
}
330
2
100
AcDbSymbolTableRecord
100
AcDbLayerTableRecord
  2
06___PRT_ALL_SURFS
 70
     0
 62
     7
  6
CONTINUOUS
370
    -3
390
F
  0
LAYER
  5
205
102
{ACAD_XDICTIONARY
360
AD2
102
}
330
2
100
AcDbSymbolTableRecord
100
AcDbLayerTableRecord
  2
07__PRT_ALL_ANNOTATION
 70
     0
 62
     7
  6
CONTINUOUS
370
    -3
390
F
  0
LAYER
  5
206
102
{ACAD_XDICTIONARY
360
AD4
102
}
330
2
100
AcDbSymbolTableRecord
100
AcDbLayerTableRecord
  2
AXIS
 70
     0
 62
     7
  6
CONTINUOUS
370
    -3
390
F
  0
LAYER
  5
9F6
330
2
100
AcDbSymbolTableRecord
100
AcDbLayerTableRecord
  2
Defpoints
 70
     0
 62
     7
  6
CONTINUOUS
290
     0
370
    -3
390
F
  0
ENDTAB
  0
TABLE
  2
STYLE
  5
3
330
0
100
AcDbSymbolTable
 70
     4
  0
STYLE
  5
11
330
3
100
AcDbSymbolTableRecord
100
AcDbTextStyleTableRecord
  2
STANDARD
 70
     0
 40
0.0
 41
1.0
 50
0.0
 71
     0
 42
0.2
  3
gost.ttf
  4

  0
STYLE
  5
207
330
3
100
AcDbSymbolTableRecord
100
AcDbTextStyleTableRecord
  2
TEXTSTYLE_1
 70
     0
 40
0.0
 41
0.8
 50
0.0
 71
     0
 42
0.2
  3
gdt
  4

  0
ENDTAB
  0
TABLE
  2
VIEW
  5
6
330
0
100
AcDbSymbolTable
 70
     0
  0
ENDTAB
  0
TABLE
  2
UCS
  5
7
330
0
100
AcDbSymbolTable
 70
     0
  0
ENDTAB
  0
TABLE
  2
APPID
  5
9
330
0
100
AcDbSymbolTable
 70
     5
  0
APPID
  5
208
330
9
100
AcDbSymbolTableRecord
100
AcDbRegAppTableRecord
  2
ACAD
 70
     0
  0
APPID
  5
562
330
9
100
AcDbSymbolTableRecord
100
AcDbRegAppTableRecord
  2
ACAD_EXEMPT_FROM_CAD_STANDARDS
 70
     0
  0
APPID
  5
ADF
330
9
100
AcDbSymbolTableRecord
100
AcDbRegAppTableRecord
  2
ACAD_PSEXT
 70
     0
  0
APPID
  5
AE0
330
9
100
AcDbSymbolTableRecord
100
AcDbRegAppTableRecord
  2
ACAD_NAV_VCDISPLAY
 70
     0
  0
APPID
  5
BF8
330
9
100
AcDbSymbolTableRecord
100
AcDbRegAppTableRecord
  2
ACAD_MLEADERVER
 70
     0
  0
ENDTAB
  0
TABLE
  2
DIMSTYLE
  5
A
330
0
100
AcDbSymbolTable
 70
     9
100
AcDbDimStyleTable
 71
     1
340
221
  0
DIMSTYLE
105
221
330
A
100
AcDbSymbolTableRecord
100
AcDbDimStyleTableRecord
  2
STANDARD
 70
     0
 41
4.0
 42
0.0
 44
0.5
 47
0.001
 48
0.001
 71
     1
 73
     0
 74
     0
 77
     1
 78
     8
140
3.5
147
0.625
271
     3
272
     3
278
    44
284
     8
340
11
341
20B
342
20B
343
20B
344
20B
  0
DIMSTYLE
105
222
102
{ACAD_REACTORS
330
2F1
330
2F7
102
}
330
A
100
AcDbSymbolTableRecord
100
AcDbDimStyleTableRecord
  2
DIMSTYLE_1
 70
     0
 41
4.0
 42
0.0
 44
0.5
 47
0.3
 48
0.3
 73
     0
 74
     0
 77
     1
 78
     8
140
3.5
147
0.875
271
     3
272
     3
278
    44
284
     8
340
11
341
20B
342
20B
343
20B
344
20B
  0
DIMSTYLE
105
223
102
{ACAD_REACTORS
330
2F2
330
2F8
330
2F9
330
2FA
330
2FB
330
2FC
330
2FE
330
300
330
301
330
302
330
303
330
304
330
305
102
}
330
A
100
AcDbSymbolTableRecord
100
AcDbDimStyleTableRecord
  2
DIMSTYLE_2
 70
     0
 41
4.0
 42
0.0
 44
0.5
 47
0.2
 48
0.2
 73
     0
 74
     0
 77
     1
 78
     8
140
3.5
147
0.875
271
     3
272
     3
278
    44
284
     8
340
11
341
20B
342
20B
343
20B
344
20B
  0
DIMSTYLE
105
224
102
{ACAD_REACTORS
330
2F3
330
2FF
102
}
330
A
100
AcDbSymbolTableRecord
100
AcDbDimStyleTableRecord
  2
DIMSTYLE_3
 70
     0
 41
4.0
 42
0.0
 44
0.5
 47
0.1
 48
0.1
 73
     0
 74
     0
 77
     1
 78
     8
140
3.5
147
0.875
271
     3
272
     3
278
    44
284
     8
340
11
341
20B
342
20B
343
20B
344
20B
  0
DIMSTYLE
105
225
102
{ACAD_REACTORS
330
2F4
330
2F5
330
2F6
102
}
330
A
100
AcDbSymbolTableRecord
100
AcDbDimStyleTableRecord
  2
DIMSTYLE_4
 70
     0
 41
4.0
 42
0.0
 44
0.5
 47
0.8
 48
0.8
 73
     0
 74
     0
 77
     1
 78
     8
140
3.5
147
0.875
271
     3
272
     3
278
    44
284
     8
340
11
341
20B
342
20B
343
20B
344
20B
  0
DIMSTYLE
105
226
102
{ACAD_REACTORS
330
2FD
102
}
330
A
100
AcDbSymbolTableRecord
100
AcDbDimStyleTableRecord
  2
DIMSTYLE_5
 70
     0
  3
<>
 41
4.0
 42
0.0
 44
0.5
 47
0.1
 48
0.1
 73
     0
 74
     0
 77
     1
 78
     8
140
3.5
147
0.625
172
     1
271
     3
272
     3
278
    44
284
     8
288
     1
289
     2
340
11
341
20B
342
20B
343
20B
344
20B
  0
ENDTAB
  0
TABLE
  2
BLOCK_RECORD
  5
1
330
0
100
AcDbSymbolTable
 70
    26
  0
BLOCK_RECORD
  5
209
330
1
100
AcDbSymbolTableRecord
100
AcDbBlockTableRecord
  2
*Model_Space
340
50E
  0
BLOCK_RECORD
  5
20A
330
1
100
AcDbSymbolTableRecord
100
AcDbBlockTableRecord
  2
*Paper_Space
340
50F
  0
BLOCK_RECORD
  5
20B
330
1
100
AcDbSymbolTableRecord
100
AcDbBlockTableRecord
  2
_FILLED
340
0
102
{BLKREFS
331
AB3
331
AB4
331
9FA
331
9FB
331
A04
331
A05
331
A0E
331
A0F
331
A17
331
A18
331
A20
331
A21
331
A29
331
A2A
331
A33
331
A34
331
A3C
331
A3D
331
A46
331
A47
331
A4E
331
A4F
331
A57
331
A58
331
A60
331
A61
331
A6A
331
A6B
331
A73
331
A74
331
A7C
331
A7D
331
A85
331
A86
331
A8E
331
A8F
331
A97
331
A98
331
AA1
331
AA2
331
AAA
331
AAB
102
}
  0
BLOCK_RECORD
  5
20C
330
1
100
AcDbSymbolTableRecord
100
AcDbBlockTableRecord
  2
*D1
340
0
  0
BLOCK_RECORD
  5
20D
330
1
100
AcDbSymbolTableRecord
100
AcDbBlockTableRecord
  2
*D2
340
0
  0
BLOCK_RECORD
  5
20E
330
1
100
AcDbSymbolTableRecord
100
AcDbBlockTableRecord
  2
*D3
340
0
  0
BLOCK_RECORD
  5
20F
330
1
100
AcDbSymbolTableRecord
100
AcDbBlockTableRecord
  2
*D4
340
0
  0
BLOCK_RECORD
  5
210
330
1
100
AcDbSymbolTableRecord
100
AcDbBlockTableRecord
  2
*D5
340
0
  0
BLOCK_RECORD
  5
211
330
1
100
AcDbSymbolTableRecord
100
AcDbBlockTableRecord
  2
*D6
340
0
  0
BLOCK_RECORD
  5
212
330
1
100
AcDbSymbolTableRecord
100
AcDbBlockTableRecord
  2
*D7
340
0
  0
BLOCK_RECORD
  5
213
330
1
100
AcDbSymbolTableRecord
100
AcDbBlockTableRecord
  2
*D8
340
0
  0
BLOCK_RECORD
  5
214
330
1
100
AcDbSymbolTableRecord
100
AcDbBlockTableRecord
  2
*D9
340
0
  0
BLOCK_RECORD
  5
215
330
1
100
AcDbSymbolTableRecord
100
AcDbBlockTableRecord
  2
*D10
340
0
  0
BLOCK_RECORD
  5
216
330
1
100
AcDbSymbolTableRecord
100
AcDbBlockTableRecord
  2
*D11
340
0
  0
BLOCK_RECORD
  5
217
330
1
100
AcDbSymbolTableRecord
100
AcDbBlockTableRecord
  2
*D12
340
0
  0
BLOCK_RECORD
  5
218
330
1
100
AcDbSymbolTableRecord
100
AcDbBlockTableRecord
  2
*D13
340
0
  0
BLOCK_RECORD
  5
219
330
1
100
AcDbSymbolTableRecord
100
AcDbBlockTableRecord
  2
*D14
340
0
  0
BLOCK_RECORD
  5
21A
330
1
100
AcDbSymbolTableRecord
100
AcDbBlockTableRecord
  2
*D15
340
0
  0
BLOCK_RECORD
  5
21B
330
1
100
AcDbSymbolTableRecord
100
AcDbBlockTableRecord
  2
*D16
340
0
  0
BLOCK_RECORD
  5
21C
330
1
100
AcDbSymbolTableRecord
100
AcDbBlockTableRecord
  2
*D17
340
0
  0
BLOCK_RECORD
  5
21D
330
1
100
AcDbSymbolTableRecord
100
AcDbBlockTableRecord
  2
*D18
340
0
  0
BLOCK_RECORD
  5
21E
330
1
100
AcDbSymbolTableRecord
100
AcDbBlockTableRecord
  2
*D19
340
0
  0
BLOCK_RECORD
  5
21F
330
1
100
AcDbSymbolTableRecord
100
AcDbBlockTableRecord
  2
*D20
340
0
  0
BLOCK_RECORD
  5
220
330
1
100
AcDbSymbolTableRecord
100
AcDbBlockTableRecord
  2
*D21
340
0
  0
ENDTAB
  0
ENDSEC
  0
SECTION
  2
BLOCKS
  0
BLOCK
  5
20
330
209
100
AcDbEntity
  8
0
100
AcDbBlockBegin
  2
*Model_Space
 70
     0
 10
0.0
 20
0.0
 30
0.0
  3
*Model_Space
  1

  0
ENDBLK
  5
21
330
209
100
AcDbEntity
  8
0
100
AcDbBlockEnd
  0
BLOCK
  5
1C
330
20A
100
AcDbEntity
 67
     1
  8
0
100
AcDbBlockBegin
  2
*Paper_Space
 70
     0
 10
0.0
 20
0.0
 30
0.0
  3
*Paper_Space
  1

  0
ENDBLK
  5
1D
330
20A
100
AcDbEntity
 67
     1
  8
0
100
AcDbBlockEnd
  0
BLOCK
  5
227
330
20B
100
AcDbEntity
  8
0
100
AcDbBlockBegin
  2
_FILLED
 70
     0
 10
0.0
 20
0.0
 30
0.0
  3
_FILLED
  1

  0
SOLID
  5
228
330
20B
100
AcDbEntity
  8
0
  6
ByBlock
 62
     0
100
AcDbTrace
 10
0.0
 20
0.0
 30
0.0
 11
-1.0
 21
0.125
 31
0.0
 12
-1.0
 22
-0.125
 32
0.0
 13
-1.0
 23
-0.125
 33
0.0
  0
ENDBLK
  5
229
330
20B
100
AcDbEntity
  8
0
  6
ByBlock
 62
     0
100
AcDbBlockEnd
  0
BLOCK
  5
22A
330
20C
100
AcDbEntity
  8
0
  6
Continuous
 62
     2
100
AcDbBlockBegin
  2
*D1
 70
     1
 10
0.0
 20
0.0
 30
0.0
  3
*D1
  1

  0
LINE
  5
AB0
330
20C
100
AcDbEntity
  8
0
  6
Continuous
 62
     0
370
    -2
100
AcDbLine
 10
568.3837842094
 20
301.2379275195
 30
0.0
 11
586.2893641798001
 21
301.2379275195
 31
0.0
  0
LINE
  5
AB1
330
20C
100
AcDbEntity
  8
0
  6
Continuous
 62
     0
370
    -2
100
AcDbLine
 10
568.3837842094
 20
253.2379275195
 30
0.0
 11
586.2893641798
 21
253.2379275195
 31
0.0
  0
LINE
  5
AB2
330
20C
100
AcDbEntity
  8
0
  6
Continuous
 62
     0
370
    -2
100
AcDbLine
 10
585.7893641798001
 20
297.2379275195
 30
0.0
 11
585.7893641798001
 21
257.2379275195
 31
0.0
  0
INSERT
  5
AB3
330
20C
100
AcDbEntity
  8
0
  6
Continuous
 62
     0
370
    -2
100
AcDbBlockReference
  2
_FILLED
 10
585.7893641798001
 20
301.2379275195
 30
0.0
 41
4.0
 42
4.0
 43
4.0
 50
90.0
  0
INSERT
  5
AB4
330
20C
100
AcDbEntity
  8
0
  6
Continuous
 62
     0
370
    -2
100
AcDbBlockReference
  2
_FILLED
 10
585.7893641798
 20
253.2379275195
 30
0.0
 41
4.0
 42
4.0
 43
4.0
 50
270.0
  0
MTEXT
  5
AB5
330
20C
100
AcDbEntity
  8
0
  6
Continuous
 62
     0
100
AcDbMText
 10
581.4143641798
 20
277.2379391511
 30
0.0
 40
3.5
 41
0.0
 71
     2
 72
     1
  1
\A1;48
 11
0.0000000000000001
 21
1.0
 31
0.0
 73
     1
 44
1.0
1001
ACAD
1000
MTEXTBEGIN
1070
    73
1070
     1
1070
    44
1040
1.0
1070
    74
1070
     0
1000
MTEXTEND
  0
POINT
  5
AB6
330
20C
100
AcDbEntity
  8
Defpoints
  6
Continuous
 62
     0
100
AcDbPoint
 10
568.3837842094
 20
301.2379275195
 30
0.0
  0
POINT
  5
AB7
330
20C
100
AcDbEntity
  8
Defpoints
  6
Continuous
 62
     0
100
AcDbPoint
 10
568.3837842094
 20
253.2379275195
 30
0.0
  0
POINT
  5
AB8
330
20C
100
AcDbEntity
  8
Defpoints
  6
Continuous
 62
     0
100
AcDbPoint
 10
585.7893641798
 20
253.2379275195
 30
0.0
  0
ENDBLK
  5
232
330
20C
100
AcDbEntity
  8
0
  6
ByBlock
 62
     0
100
AcDbBlockEnd
  0
BLOCK
  5
233
330
20D
100
AcDbEntity
  8
0
  6
Continuous
 62
     2
100
AcDbBlockBegin
  2
*D2
 70
     1
 10
0.0
 20
0.0
 30
0.0
  3
*D2
  1

  0
LINE
  5
AA7
330
20D
100
AcDbEntity
  8
0
  6
Continuous
 62
     0
370
    -2
100
AcDbLine
 10
548.3837842094
 20
298.2379275195
 30
0.0
 11
548.3837842094
 21
313.6839304001
 31
0.0
  0
LINE
  5
AA8
330
20D
100
AcDbEntity
  8
0
  6
Continuous
 62
     0
370
    -2
100
AcDbLine
 10
571.3837842094
 20
298.2379275195
 30
0.0
 11
571.3837842094
 21
313.6839304001
 31
0.0
  0
LINE
  5
AA9
330
20D
100
AcDbEntity
  8
0
  6
Continuous
 62
     0
370
    -2
100
AcDbLine
 10
552.3837842094
 20
313.1839304001
 30
0.0
 11
567.3837842094
 21
313.1839304001
 31
0.0
  0
INSERT
  5
AAA
330
20D
100
AcDbEntity
  8
0
  6
Continuous
 62
     0
370
    -2
100
AcDbBlockReference
  2
_FILLED
 10
548.3837842094
 20
313.1839304001
 30
0.0
 41
4.0
 42
4.0
 43
4.0
 50
180.0
  0
INSERT
  5
AAB
330
20D
100
AcDbEntity
  8
0
  6
Continuous
 62
     0
370
    -2
100
AcDbBlockReference
  2
_FILLED
 10
571.3837842094
 20
313.1839304001
 30
0.0
 41
4.0
 42
4.0
 43
4.0
  0
MTEXT
  5
AAC
330
20D
100
AcDbEntity
  8
0
  6
Continuous
 62
     0
100
AcDbMText
 10
559.9159508057
 20
317.5589304001
 30
0.0
 40
3.5
 41
0.0
 71
     2
 72
     1
  1
\A1;23
 73
     1
 44
1.0
1001
ACAD
1000
MTEXTBEGIN
1070
    73
1070
     1
1070
    44
1040
1.0
1070
    74
1070
     0
1000
MTEXTEND
  0
POINT
  5
AAD
330
20D
100
AcDbEntity
  8
Defpoints
  6
Continuous
 62
     0
100
AcDbPoint
 10
548.3837842094
 20
298.2379275195
 30
0.0
  0
POINT
  5
AAE
330
20D
100
AcDbEntity
  8
Defpoints
  6
Continuous
 62
     0
100
AcDbPoint
 10
571.3837842094
 20
298.2379275195
 30
0.0
  0
POINT
  5
AAF
330
20D
100
AcDbEntity
  8
Defpoints
  6
Continuous
 62
     0
100
AcDbPoint
 10
571.3837842094
 20
313.1839304001
 30
0.0
  0
ENDBLK
  5
23B
330
20D
100
AcDbEntity
  8
0
  6
ByBlock
 62
     0
100
AcDbBlockEnd
  0
BLOCK
  5
23C
330
20E
100
AcDbEntity
  8
0
  6
Continuous
 62
     2
100
AcDbBlockBegin
  2
*D3
 70
     1
 10
0.0
 20
0.0
 30
0.0
  3
*D3
  1

  0
LINE
  5
A9D
330
20E
100
AcDbEntity
  8
0
  6
Continuous
 62
     0
370
    -2
100
AcDbLine
 10
549.8837842093999
 20
263.2379275195
 30
0.0
 11
549.8837842093999
 21
272.2929933852
 31
0.0
  0
LINE
  5
A9E
330
20E
100
AcDbEntity
  8
0
  6
Continuous
 62
     0
370
    -2
100
AcDbLine
 10
548.3837842094
 20
263.2379275195
 30
0.0
 11
548.3837842094
 21
272.2929933852
 31
0.0
  0
LINE
  5
A9F
330
20E
100
AcDbEntity
  8
0
  6
Continuous
 62
     0
370
    -2
100
AcDbLine
 10
553.8837842093999
 20
271.7929933852
 30
0.0
 11
557.8837842093999
 21
271.7929933852
 31
0.0
  0
LINE
  5
AA0
330
20E
100
AcDbEntity
  8
0
  6
Continuous
 62
     0
370
    -2
100
AcDbLine
 10
544.3837842094
 20
271.7929933852
 30
0.0
 11
531.9671175427333
 21
271.7929933852
 31
0.0
  0
INSERT
  5
AA1
330
20E
100
AcDbEntity
  8
0
  6
Continuous
 62
     0
370
    -2
100
AcDbBlockReference
  2
_FILLED
 10
549.8837842093999
 20
271.7929933852
 30
0.0
 41
4.0
 42
4.0
 43
4.0
 50
180.0
  0
INSERT
  5
AA2
330
20E
100
AcDbEntity
  8
0
  6
Continuous
 62
     0
370
    -2
100
AcDbBlockReference
  2
_FILLED
 10
548.3837842094
 20
271.7929933852
 30
0.0
 41
4.0
 42
4.0
 43
4.0
  0
MTEXT
  5
AA3
330
20E
100
AcDbEntity
  8
0
  6
Continuous
 62
     0
100
AcDbMText
 10
539.5087842094
 20
276.8346600518666
 30
0.0
 40
3.5
 41
0.0
 71
     3
 72
     1
  1
\A1;1,5
 73
     1
 44
1.0
1001
ACAD
1000
MTEXTBEGIN
1070
    73
1070
     1
1070
    44
1040
1.0
1070
    74
1070
     0
1000
MTEXTEND
  0
POINT
  5
AA4
330
20E
100
AcDbEntity
  8
Defpoints
  6
Continuous
 62
     0
100
AcDbPoint
 10
549.8837842093999
 20
263.2379275195
 30
0.0
  0
POINT
  5
AA5
330
20E
100
AcDbEntity
  8
Defpoints
  6
Continuous
 62
     0
100
AcDbPoint
 10
548.3837842094
 20
263.2379275195
 30
0.0
  0
POINT
  5
AA6
330
20E
100
AcDbEntity
  8
Defpoints
  6
Continuous
 62
     0
100
AcDbPoint
 10
548.3837842094
 20
271.7929933852
 30
0.0
  0
ENDBLK
  5
246
330
20E
100
AcDbEntity
  8
0
  6
ByBlock
 62
     0
100
AcDbBlockEnd
  0
BLOCK
  5
247
330
20F
100
AcDbEntity
  8
0
  6
Continuous
 62
     2
100
AcDbBlockBegin
  2
*D4
 70
     1
 10
0.0
 20
0.0
 30
0.0
  3
*D4
  1

  0
LINE
  5
A94
330
20F
100
AcDbEntity
  8
0
  6
Continuous
 62
     0
370
    -2
100
AcDbLine
 10
489.8095265687
 20
261.2379275195
 30
0.0
 11
489.8095265687
 21
205.6649985035
 31
0.0
  0
LINE
  5
A95
330
20F
100
AcDbEntity
  8
0
  6
Continuous
 62
     0
370
    -2
100
AcDbLine
 10
-68.19047343130001
 20
277.2379275195
 30
0.0
 11
-68.19047343130001
 21
205.6649985035
 31
0.0
  0
LINE
  5
A96
330
20F
100
AcDbEntity
  8
0
  6
Continuous
 62
     0
370
    -2
100
AcDbLine
 10
485.8095265687
 20
206.1649985035
 30
0.0
 11
-64.1904734313
 21
206.1649985035
 31
0.0
  0
INSERT
  5
A97
330
20F
100
AcDbEntity
  8
0
  6
Continuous
 62
     0
370
    -2
100
AcDbBlockReference
  2
_FILLED
 10
489.8095265687
 20
206.1649985035
 30
0.0
 41
4.0
 42
4.0
 43
4.0
  0
INSERT
  5
A98
330
20F
100
AcDbEntity
  8
0
  6
Continuous
 62
     0
370
    -2
100
AcDbBlockReference
  2
_FILLED
 10
-68.19047343130001
 20
206.1649985035
 30
0.0
 41
4.0
 42
4.0
 43
4.0
 50
180.0
  0
MTEXT
  5
A99
330
20F
100
AcDbEntity
  8
0
  6
Continuous
 62
     0
100
AcDbMText
 10
210.8095268555
 20
210.5399985035
 30
0.0
 40
3.5
 41
0.0
 71
     2
 72
     1
  1
\A1;558
 73
     1
 44
1.0
1001
ACAD
1000
MTEXTBEGIN
1070
    73
1070
     1
1070
    44
1040
1.0
1070
    74
1070
     0
1000
MTEXTEND
  0
POINT
  5
A9A
330
20F
100
AcDbEntity
  8
Defpoints
  6
Continuous
 62
     0
100
AcDbPoint
 10
489.8095265687
 20
261.2379275195
 30
0.0
  0
POINT
  5
A9B
330
20F
100
AcDbEntity
  8
Defpoints
  6
Continuous
 62
     0
100
AcDbPoint
 10
-68.19047343130001
 20
277.2379275195
 30
0.0
  0
POINT
  5
A9C
330
20F
100
AcDbEntity
  8
Defpoints
  6
Continuous
 62
     0
100
AcDbPoint
 10
-68.19047343130001
 20
206.1649985035
 30
0.0
  0
ENDBLK
  5
24F
330
20F
100
AcDbEntity
  8
0
  6
ByBlock
 62
     0
100
AcDbBlockEnd
  0
BLOCK
  5
250
330
210
100
AcDbEntity
  8
0
  6
Continuous
 62
     2
100
AcDbBlockBegin
  2
*D5
 70
     1
 10
0.0
 20
0.0
 30
0.0
  3
*D5
  1

  0
LINE
  5
A8B
330
210
100
AcDbEntity
  8
0
  6
Continuous
 62
     0
370
    -2
100
AcDbLine
 10
465.8095265687
 20
253.2379275195
 30
0.0
 11
465.8095265687
 21
236.6297903415
 31
0.0
  0
LINE
  5
A8C
330
210
100
AcDbEntity
  8
0
  6
Continuous
 62
     0
370
    -2
100
AcDbLine
 10
-44.19047343129999
 20
253.2379275195
 30
0.0
 11
-44.19047343129999
 21
236.6297903415
 31
0.0
  0
LINE
  5
A8D
330
210
100
AcDbEntity
  8
0
  6
Continuous
 62
     0
370
    -2
100
AcDbLine
 10
461.8095265687
 20
237.1297903415
 30
0.0
 11
-40.1904734313
 21
237.1297903415
 31
0.0
  0
INSERT
  5
A8E
330
210
100
AcDbEntity
  8
0
  6
Continuous
 62
     0
370
    -2
100
AcDbBlockReference
  2
_FILLED
 10
465.8095265687
 20
237.1297903415
 30
0.0
 41
4.0
 42
4.0
 43
4.0
  0
INSERT
  5
A8F
330
210
100
AcDbEntity
  8
0
  6
Continuous
 62
     0
370
    -2
100
AcDbBlockReference
  2
_FILLED
 10
-44.19047343129999
 20
237.1297903415
 30
0.0
 41
4.0
 42
4.0
 43
4.0
 50
180.0
  0
MTEXT
  5
A90
330
210
100
AcDbEntity
  8
0
  6
Continuous
 62
     0
100
AcDbMText
 10
210.8047049561
 20
241.5047903415
 30
0.0
 40
3.5
 41
0.0
 71
     2
 72
     1
  1
\A1;510
 73
     1
 44
1.0
1001
ACAD
1000
MTEXTBEGIN
1070
    73
1070
     1
1070
    44
1040
1.0
1070
    74
1070
     0
1000
MTEXTEND
  0
POINT
  5
A91
330
210
100
AcDbEntity
  8
Defpoints
  6
Continuous
 62
     0
100
AcDbPoint
 10
465.8095265687
 20
253.2379275195
 30
0.0
  0
POINT
  5
A92
330
210
100
AcDbEntity
  8
Defpoints
  6
Continuous
 62
     0
100
AcDbPoint
 10
-44.19047343129999
 20
253.2379275195
 30
0.0
  0
POINT
  5
A93
330
210
100
AcDbEntity
  8
Defpoints
  6
Continuous
 62
     0
100
AcDbPoint
 10
-44.19047343129999
 20
237.1297903415
 30
0.0
  0
ENDBLK
  5
258
330
210
100
AcDbEntity
  8
0
  6
ByBlock
 62
     0
100
AcDbBlockEnd
  0
BLOCK
  5
259
330
211
100
AcDbEntity
  8
0
  6
Continuous
 62
     2
100
AcDbBlockBegin
  2
*D6
 70
     1
 10
0.0
 20
0.0
 30
0.0
  3
*D6
  1

  0
LINE
  5
A82
330
211
100
AcDbEntity
  8
0
  6
Continuous
 62
     0
370
    -2
100
AcDbLine
 10
-59.19047343129999
 20
261.3379275195
 30
0.0
 11
-59.19047343129999
 21
219.8131133655
 31
0.0
  0
LINE
  5
A83
330
211
100
AcDbEntity
  8
0
  6
Continuous
 62
     0
370
    -2
100
AcDbLine
 10
480.8095265687
 20
261.3379275195
 30
0.0
 11
480.8095265687
 21
219.8131133655
 31
0.0
  0
LINE
  5
A84
330
211
100
AcDbEntity
  8
0
  6
Continuous
 62
     0
370
    -2
100
AcDbLine
 10
-55.1904734313
 20
220.3131133655
 30
0.0
 11
476.8095265687001
 21
220.3131133655
 31
0.0
  0
INSERT
  5
A85
330
211
100
AcDbEntity
  8
0
  6
Continuous
 62
     0
370
    -2
100
AcDbBlockReference
  2
_FILLED
 10
-59.19047343129999
 20
220.3131133655
 30
0.0
 41
4.0
 42
4.0
 43
4.0
 50
180.0
  0
INSERT
  5
A86
330
211
100
AcDbEntity
  8
0
  6
Continuous
 62
     0
370
    -2
100
AcDbBlockReference
  2
_FILLED
 10
480.8095265687
 20
220.3131133655
 30
0.0
 41
4.0
 42
4.0
 43
4.0
  0
MTEXT
  5
A87
330
211
100
AcDbEntity
  8
0
  6
Continuous
 62
     0
100
AcDbMText
 10
210.8063092346
 20
224.6881133655
 30
0.0
 40
3.5
 41
0.0
 71
     2
 72
     1
  1
\A1;540
 73
     1
 44
1.0
1001
ACAD
1000
MTEXTBEGIN
1070
    73
1070
     1
1070
    44
1040
1.0
1070
    74
1070
     0
1000
MTEXTEND
  0
POINT
  5
A88
330
211
100
AcDbEntity
  8
Defpoints
  6
Continuous
 62
     0
100
AcDbPoint
 10
-59.19047343129999
 20
261.3379275195
 30
0.0
  0
POINT
  5
A89
330
211
100
AcDbEntity
  8
Defpoints
  6
Continuous
 62
     0
100
AcDbPoint
 10
480.8095265687
 20
261.3379275195
 30
0.0
  0
POINT
  5
A8A
330
211
100
AcDbEntity
  8
Defpoints
  6
Continuous
 62
     0
100
AcDbPoint
 10
480.8095265687
 20
220.3131133655
 30
0.0
  0
ENDBLK
  5
261
330
211
100
AcDbEntity
  8
0
  6
ByBlock
 62
     0
100
AcDbBlockEnd
  0
BLOCK
  5
262
330
212
100
AcDbEntity
  8
0
  6
Continuous
 62
     2
100
AcDbBlockBegin
  2
*D7
 70
     1
 10
0.0
 20
0.0
 30
0.0
  3
*D7
  1

  0
LINE
  5
A79
330
212
100
AcDbEntity
  8
0
  6
Continuous
 62
     0
370
    -2
100
AcDbLine
 10
477.1201867404999
 20
298.2379275195
 30
0.0
 11
516.4927640040001
 21
298.2379275195
 31
0.0
  0
LINE
  5
A7A
330
212
100
AcDbEntity
  8
0
  6
Continuous
 62
     0
370
    -2
100
AcDbLine
 10
477.1201867404999
 20
256.2379275195
 30
0.0
 11
516.4927640040001
 21
256.2379275195
 31
0.0
  0
LINE
  5
A7B
330
212
100
AcDbEntity
  8
0
  6
Continuous
 62
     0
370
    -2
100
AcDbLine
 10
515.9927640040002
 20
294.2379275195
 30
0.0
 11
515.9927640040002
 21
260.2379275195001
 31
0.0
  0
INSERT
  5
A7C
330
212
100
AcDbEntity
  8
0
  6
Continuous
 62
     0
370
    -2
100
AcDbBlockReference
  2
_FILLED
 10
515.9927640040002
 20
298.2379275195
 30
0.0
 41
4.0
 42
4.0
 43
4.0
 50
90.0
  0
INSERT
  5
A7D
330
212
100
AcDbEntity
  8
0
  6
Continuous
 62
     0
370
    -2
100
AcDbBlockReference
  2
_FILLED
 10
515.9927640040002
 20
256.2379275195
 30
0.0
 41
4.0
 42
4.0
 43
4.0
 50
270.0
  0
MTEXT
  5
A7E
330
212
100
AcDbEntity
  8
0
  6
Continuous
 62
     0
100
AcDbMText
 10
511.617764004
 20
277.2443612263
 30
0.0
 40
3.5
 41
0.0
 71
     2
 72
     1
  1
\A1;42
 11
0.0000000000000001
 21
1.0
 31
0.0
 73
     1
 44
1.0
1001
ACAD
1000
MTEXTBEGIN
1070
    73
1070
     1
1070
    44
1040
1.0
1070
    74
1070
     0
1000
MTEXTEND
  0
POINT
  5
A7F
330
212
100
AcDbEntity
  8
Defpoints
  6
Continuous
 62
     0
100
AcDbPoint
 10
477.1201867404999
 20
298.2379275195
 30
0.0
  0
POINT
  5
A80
330
212
100
AcDbEntity
  8
Defpoints
  6
Continuous
 62
     0
100
AcDbPoint
 10
477.1201867404999
 20
256.2379275195
 30
0.0
  0
POINT
  5
A81
330
212
100
AcDbEntity
  8
Defpoints
  6
Continuous
 62
     0
100
AcDbPoint
 10
515.9927640040002
 20
256.2379275195
 30
0.0
  0
ENDBLK
  5
26A
330
212
100
AcDbEntity
  8
0
  6
ByBlock
 62
     0
100
AcDbBlockEnd
  0
BLOCK
  5
26B
330
213
100
AcDbEntity
  8
0
  6
Continuous
 62
     2
100
AcDbBlockBegin
  2
*D8
 70
     1
 10
0.0
 20
0.0
 30
0.0
  3
*D8
  1

  0
LINE
  5
A70
330
213
100
AcDbEntity
  8
0
  6
Continuous
 62
     0
370
    -2
100
AcDbLine
 10
485.9595265687
 20
289.7379275195
 30
0.0
 11
503.4695640964001
 21
289.7379275195
 31
0.0
  0
LINE
  5
A71
330
213
100
AcDbEntity
  8
0
  6
Continuous
 62
     0
370
    -2
100
AcDbLine
 10
485.9595265687
 20
264.7379275195
 30
0.0
 11
503.4695640964001
 21
264.7379275195
 31
0.0
  0
LINE
  5
A72
330
213
100
AcDbEntity
  8
0
  6
Continuous
 62
     0
370
    -2
100
AcDbLine
 10
502.9695640964
 20
285.7379275195
 30
0.0
 11
502.9695640964
 21
268.7379275195
 31
0.0
  0
INSERT
  5
A73
330
213
100
AcDbEntity
  8
0
  6
Continuous
 62
     0
370
    -2
100
AcDbBlockReference
  2
_FILLED
 10
502.9695640964
 20
289.7379275195
 30
0.0
 41
4.0
 42
4.0
 43
4.0
 50
90.0
  0
INSERT
  5
A74
330
213
100
AcDbEntity
  8
0
  6
Continuous
 62
     0
370
    -2
100
AcDbBlockReference
  2
_FILLED
 10
502.9695640964
 20
264.7379275195
 30
0.0
 41
4.0
 42
4.0
 43
4.0
 50
270.0
  0
MTEXT
  5
A75
330
213
100
AcDbEntity
  8
0
  6
Continuous
 62
     0
100
AcDbMText
 10
498.5945640964
 20
277.2314928679
 30
0.0
 40
3.5
 41
0.0
 71
     2
 72
     1
  1
\A1;25
 11
0.0000000000000001
 21
1.0
 31
0.0
 73
     1
 44
1.0
1001
ACAD
1000
MTEXTBEGIN
1070
    73
1070
     1
1070
    44
1040
1.0
1070
    74
1070
     0
1000
MTEXTEND
  0
POINT
  5
A76
330
213
100
AcDbEntity
  8
Defpoints
  6
Continuous
 62
     0
100
AcDbPoint
 10
485.9595265687
 20
289.7379275195
 30
0.0
  0
POINT
  5
A77
330
213
100
AcDbEntity
  8
Defpoints
  6
Continuous
 62
     0
100
AcDbPoint
 10
485.9595265687
 20
264.7379275195
 30
0.0
  0
POINT
  5
A78
330
213
100
AcDbEntity
  8
Defpoints
  6
Continuous
 62
     0
100
AcDbPoint
 10
502.9695640964
 20
264.7379275195
 30
0.0
  0
ENDBLK
  5
273
330
213
100
AcDbEntity
  8
0
  6
ByBlock
 62
     0
100
AcDbBlockEnd
  0
BLOCK
  5
274
330
214
100
AcDbEntity
  8
0
  6
Continuous
 62
     2
100
AcDbBlockBegin
  2
*D9
 70
     1
 10
0.0
 20
0.0
 30
0.0
  3
*D9
  1

  0
LINE
  5
A66
330
214
100
AcDbEntity
  8
0
  6
Continuous
 62
     0
370
    -2
100
AcDbLine
 10
-60.9404734313
 20
293.1379275195
 30
0.0
 11
-78.59241132719994
 21
293.1379275195
 31
0.0
  0
LINE
  5
A67
330
214
100
AcDbEntity
  8
0
  6
Continuous
 62
     0
370
    -2
100
AcDbLine
 10
-60.9404734313
 20
286.3379275195
 30
0.0
 11
-78.59241132719995
 21
286.3379275195
 31
0.0
  0
LINE
  5
A68
330
214
100
AcDbEntity
  8
0
  6
Continuous
 62
     0
370
    -2
100
AcDbLine
 10
-78.09241132719995
 20
282.3379275195
 30
0.0
 11
-78.09241132719995
 21
278.3379275195
 31
0.0
  0
LINE
  5
A69
330
214
100
AcDbEntity
  8
0
  6
Continuous
 62
     0
370
    -2
100
AcDbLine
 10
-78.09241132719994
 20
297.1379275195
 30
0.0
 11
-78.09241132719994
 21
311.2801590677666
 31
0.0
  0
INSERT
  5
A6A
330
214
100
AcDbEntity
  8
0
  6
Continuous
 62
     0
370
    -2
100
AcDbBlockReference
  2
_FILLED
 10
-78.09241132719995
 20
286.3379275195
 30
0.0
 41
4.0
 42
4.0
 43
4.0
 50
90.0
  0
INSERT
  5
A6B
330
214
100
AcDbEntity
  8
0
  6
Continuous
 62
     0
370
    -2
100
AcDbBlockReference
  2
_FILLED
 10
-78.09241132719994
 20
293.1379275195
 30
0.0
 41
4.0
 42
4.0
 43
4.0
 50
270.0
  0
MTEXT
  5
A6C
330
214
100
AcDbEntity
  8
0
  6
Continuous
 62
     0
100
AcDbMText
 10
-83.13407799386665
 20
303.0718257344333
 30
0.0
 40
3.5
 41
0.0
 71
     1
 72
     1
  1
\A1;6,8
 11
0.0000000000000001
 21
1.0
 31
0.0
 73
     1
 44
1.0
1001
ACAD
1000
MTEXTBEGIN
1070
    73
1070
     1
1070
    44
1040
1.0
1070
    74
1070
     0
1000
MTEXTEND
  0
POINT
  5
A6D
330
214
100
AcDbEntity
  8
Defpoints
  6
Continuous
 62
     0
100
AcDbPoint
 10
-60.9404734313
 20
293.1379275195
 30
0.0
  0
POINT
  5
A6E
330
214
100
AcDbEntity
  8
Defpoints
  6
Continuous
 62
     0
100
AcDbPoint
 10
-60.9404734313
 20
286.3379275195
 30
0.0
  0
POINT
  5
A6F
330
214
100
AcDbEntity
  8
Defpoints
  6
Continuous
 62
     0
100
AcDbPoint
 10
-78.09241132719995
 20
286.3379275195
 30
0.0
  0
ENDBLK
  5
27E
330
214
100
AcDbEntity
  8
0
  6
ByBlock
 62
     0
100
AcDbBlockEnd
  0
BLOCK
  5
27F
330
215
100
AcDbEntity
  8
0
  6
Continuous
 62
     2
100
AcDbBlockBegin
  2
*D10
 70
     1
 10
0.0
 20
0.0
 30
0.0
  3
*D10
  1

  0
LINE
  5
A5D
330
215
100
AcDbEntity
  8
0
  6
Continuous
 62
     0
370
    -2
100
AcDbLine
 10
-54.0404734313
 20
289.7379275195
 30
0.0
 11
-54.0404734313
 21
316.4768690749
 31
0.0
  0
LINE
  5
A5E
330
215
100
AcDbEntity
  8
0
  6
Continuous
 62
     0
370
    -2
100
AcDbLine
 10
-64.3404734313
 20
289.7379275195
 30
0.0
 11
-64.3404734313
 21
316.4768690749
 31
0.0
  0
LINE
  5
A5F
330
215
100
AcDbEntity
  8
0
  6
Continuous
 62
     0
370
    -2
100
AcDbLine
 10
-58.0404734313
 20
315.9768690749
 30
0.0
 11
-60.3404734313
 21
315.9768690749
 31
0.0
  0
INSERT
  5
A60
330
215
100
AcDbEntity
  8
0
  6
Continuous
 62
     0
370
    -2
100
AcDbBlockReference
  2
_FILLED
 10
-54.0404734313
 20
315.9768690749
 30
0.0
 41
4.0
 42
4.0
 43
4.0
  0
INSERT
  5
A61
330
215
100
AcDbEntity
  8
0
  6
Continuous
 62
     0
370
    -2
100
AcDbBlockReference
  2
_FILLED
 10
-64.3404734313
 20
315.9768690749
 30
0.0
 41
4.0
 42
4.0
 43
4.0
 50
180.0
  0
MTEXT
  5
A62
330
215
100
AcDbEntity
  8
0
  6
Continuous
 62
     0
100
AcDbMText
 10
-59.19047343129999
 20
321.0185357415667
 30
0.0
 40
3.5
 41
0.0
 71
     2
 72
     1
  1
\A1;10,3
 73
     1
 44
1.0
1001
ACAD
1000
MTEXTBEGIN
1070
    73
1070
     1
1070
    44
1040
1.0
1070
    74
1070
     0
1000
MTEXTEND
  0
POINT
  5
A63
330
215
100
AcDbEntity
  8
Defpoints
  6
Continuous
 62
     0
100
AcDbPoint
 10
-54.0404734313
 20
289.7379275195
 30
0.0
  0
POINT
  5
A64
330
215
100
AcDbEntity
  8
Defpoints
  6
Continuous
 62
     0
100
AcDbPoint
 10
-64.3404734313
 20
289.7379275195
 30
0.0
  0
POINT
  5
A65
330
215
100
AcDbEntity
  8
Defpoints
  6
Continuous
 62
     0
100
AcDbPoint
 10
-64.3404734313
 20
315.9768690749
 30
0.0
  0
ENDBLK
  5
289
330
215
100
AcDbEntity
  8
0
  6
ByBlock
 62
     0
100
AcDbBlockEnd
  0
BLOCK
  5
28A
330
216
100
AcDbEntity
  8
0
  6
Continuous
 62
     2
100
AcDbBlockBegin
  2
*D11
 70
     1
 10
0.0
 20
0.0
 30
0.0
  3
*D11
  1

  0
LINE
  5
A54
330
216
100
AcDbEntity
  8
0
  6
Continuous
 62
     0
370
    -2
100
AcDbLine
 10
-68.19047343130001
 20
293.2379275195
 30
0.0
 11
-68.19047343130001
 21
333.7332431701
 31
0.0
  0
LINE
  5
A55
330
216
100
AcDbEntity
  8
0
  6
Continuous
 62
     0
370
    -2
100
AcDbLine
 10
-39.1904734313
 20
289.7379275195
 30
0.0
 11
-39.1904734313
 21
333.7332431701
 31
0.0
  0
LINE
  5
A56
330
216
100
AcDbEntity
  8
0
  6
Continuous
 62
     0
370
    -2
100
AcDbLine
 10
-64.1904734313
 20
333.2332431701
 30
0.0
 11
-43.1904734313
 21
333.2332431701
 31
0.0
  0
INSERT
  5
A57
330
216
100
AcDbEntity
  8
0
  6
Continuous
 62
     0
370
    -2
100
AcDbBlockReference
  2
_FILLED
 10
-68.19047343130001
 20
333.2332431701
 30
0.0
 41
4.0
 42
4.0
 43
4.0
 50
180.0
  0
INSERT
  5
A58
330
216
100
AcDbEntity
  8
0
  6
Continuous
 62
     0
370
    -2
100
AcDbBlockReference
  2
_FILLED
 10
-39.1904734313
 20
333.2332431701
 30
0.0
 41
4.0
 42
4.0
 43
4.0
  0
MTEXT
  5
A59
330
216
100
AcDbEntity
  8
0
  6
Continuous
 62
     0
100
AcDbMText
 10
-53.6840393143
 20
337.6082431701
 30
0.0
 40
3.5
 41
0.0
 71
     2
 72
     1
  1
\A1;29
 73
     1
 44
1.0
1001
ACAD
1000
MTEXTBEGIN
1070
    73
1070
     1
1070
    44
1040
1.0
1070
    74
1070
     0
1000
MTEXTEND
  0
POINT
  5
A5A
330
216
100
AcDbEntity
  8
Defpoints
  6
Continuous
 62
     0
100
AcDbPoint
 10
-68.19047343130001
 20
293.2379275195
 30
0.0
  0
POINT
  5
A5B
330
216
100
AcDbEntity
  8
Defpoints
  6
Continuous
 62
     0
100
AcDbPoint
 10
-39.1904734313
 20
289.7379275195
 30
0.0
  0
POINT
  5
A5C
330
216
100
AcDbEntity
  8
Defpoints
  6
Continuous
 62
     0
100
AcDbPoint
 10
-39.1904734313
 20
333.2332431701
 30
0.0
  0
ENDBLK
  5
292
330
216
100
AcDbEntity
  8
0
  6
ByBlock
 62
     0
100
AcDbBlockEnd
  0
BLOCK
  5
293
330
217
100
AcDbEntity
  8
0
  6
Continuous
 62
     2
100
AcDbBlockBegin
  2
*D12
 70
     1
 10
0.0
 20
0.0
 30
0.0
  3
*D12
  1

  0
LINE
  5
A4B
330
217
100
AcDbEntity
  8
0
  6
Continuous
 62
     0
370
    -2
100
AcDbLine
 10
-39.1904734313
 20
289.7379275195
 30
0.0
 11
-39.1904734313
 21
333.5739578545
 31
0.0
  0
LINE
  5
A4C
330
217
100
AcDbEntity
  8
0
  6
Continuous
 62
     0
370
    -2
100
AcDbLine
 10
-14.1904734313
 20
289.7379275195
 30
0.0
 11
-14.1904734313
 21
333.5739578545
 31
0.0
  0
LINE
  5
A4D
330
217
100
AcDbEntity
  8
0
  6
Continuous
 62
     0
370
    -2
100
AcDbLine
 10
-35.1904734313
 20
333.0739578545
 30
0.0
 11
-18.1904734313
 21
333.0739578545
 31
0.0
  0
INSERT
  5
A4E
330
217
100
AcDbEntity
  8
0
  6
Continuous
 62
     0
370
    -2
100
AcDbBlockReference
  2
_FILLED
 10
-39.1904734313
 20
333.0739578545
 30
0.0
 41
4.0
 42
4.0
 43
4.0
 50
180.0
  0
INSERT
  5
A4F
330
217
100
AcDbEntity
  8
0
  6
Continuous
 62
     0
370
    -2
100
AcDbBlockReference
  2
_FILLED
 10
-14.1904734313
 20
333.0739578545
 30
0.0
 41
4.0
 42
4.0
 43
4.0
  0
MTEXT
  5
A50
330
217
100
AcDbEntity
  8
0
  6
Continuous
 62
     0
100
AcDbMText
 10
-26.6969083557
 20
337.4489578545
 30
0.0
 40
3.5
 41
0.0
 71
     2
 72
     1
  1
\A1;25
 73
     1
 44
1.0
1001
ACAD
1000
MTEXTBEGIN
1070
    73
1070
     1
1070
    44
1040
1.0
1070
    74
1070
     0
1000
MTEXTEND
  0
POINT
  5
A51
330
217
100
AcDbEntity
  8
Defpoints
  6
Continuous
 62
     0
100
AcDbPoint
 10
-39.1904734313
 20
289.7379275195
 30
0.0
  0
POINT
  5
A52
330
217
100
AcDbEntity
  8
Defpoints
  6
Continuous
 62
     0
100
AcDbPoint
 10
-14.1904734313
 20
289.7379275195
 30
0.0
  0
POINT
  5
A53
330
217
100
AcDbEntity
  8
Defpoints
  6
Continuous
 62
     0
100
AcDbPoint
 10
-14.1904734313
 20
333.0739578545
 30
0.0
  0
ENDBLK
  5
29B
330
217
100
AcDbEntity
  8
0
  6
ByBlock
 62
     0
100
AcDbBlockEnd
  0
BLOCK
  5
29C
330
218
100
AcDbEntity
  8
0
  6
Continuous
 62
     2
100
AcDbBlockBegin
  2
*D13
 70
     1
 10
0.0
 20
0.0
 30
0.0
  3
*D13
  1

  0
LINE
  5
A42
330
218
100
AcDbEntity
  8
0
  6
Continuous
 62
     0
370
    -2
100
AcDbLine
 10
157.9621424860742
 20
284.1742143810776
 30
0.0
 11
156.1398166731958
 21
280.6134379725232
 31
0.0
  0
LINE
  5
A43
330
218
100
AcDbEntity
  8
0
  6
Continuous
 62
     0
370
    -2
100
AcDbLine
 10
163.6569106513258
 20
295.3016406578223
 30
0.0
 11
173.7678145151997
 21
315.0580792119001
 31
0.0
  0
LINE
  5
A44
330
218
100
AcDbEntity
  8
0
  6
Continuous
 62
     0
370
    -2
100
AcDbLine
 10
173.7678145151997
 20
315.0580792119001
 30
0.0
 11
184.8928145151997
 21
315.0580792119001
 31
0.0
  0
LINE
  5
A45
330
218
100
AcDbEntity
  8
0
  6
Continuous
 62
     0
370
    -2
100
AcDbLine
 10
159.7844682989527
 20
287.7349907896319
 30
0.0
 11
161.8345848384473
 21
291.740864249268
 31
0.0
  0
INSERT
  5
A46
330
218
100
AcDbEntity
  8
0
  6
Continuous
 62
     0
370
    -2
100
AcDbBlockReference
  2
_FILLED
 10
159.7844682989527
 20
287.7349907896319
 30
0.0
 41
4.0
 42
4.0
 43
4.0
 50
62.89764780651744
  0
INSERT
  5
A47
330
218
100
AcDbEntity
  8
0
  6
Continuous
 62
     0
370
    -2
100
AcDbBlockReference
  2
_FILLED
 10
161.8345848384473
 20
291.740864249268
 30
0.0
 41
4.0
 42
4.0
 43
4.0
 50
242.8976478065174
  0
MTEXT
  5
A48
330
218
100
AcDbEntity
  8
0
  6
Continuous
 62
     0
100
AcDbMText
 10
174.3928145151999
 20
319.8497458785666
 30
0.0
 40
3.5
 41
0.0
 71
     1
 72
     1
  1
\A1;%%c4,5
 73
     1
 44
1.0
1001
ACAD
1000
MTEXTBEGIN
1070
    73
1070
     1
1070
    44
1040
1.0
1070
    74
1070
     0
1000
MTEXTEND
  0
POINT
  5
A49
330
218
100
AcDbEntity
  8
Defpoints
  6
Continuous
 62
     0
100
AcDbPoint
 10
161.8345848384473
 20
291.740864249268
 30
0.0
  0
POINT
  5
A4A
330
218
100
AcDbEntity
  8
Defpoints
  6
Continuous
 62
     0
100
AcDbPoint
 10
159.7844682989527
 20
287.7349907896319
 30
0.0
  0
ENDBLK
  5
2A2
330
218
100
AcDbEntity
  8
0
  6
ByBlock
 62
     0
100
AcDbBlockEnd
  0
BLOCK
  5
2A3
330
219
100
AcDbEntity
  8
0
  6
Continuous
 62
     2
100
AcDbBlockBegin
  2
*D14
 70
     1
 10
0.0
 20
0.0
 30
0.0
  3
*D14
  1

  0
LINE
  5
A39
330
219
100
AcDbEntity
  8
0
  6
Continuous
 62
     0
370
    -2
100
AcDbLine
 10
551.3837842094
 20
301.2379275195
 30
0.0
 11
536.2530033069001
 21
301.2379275195
 31
0.0
  0
LINE
  5
A3A
330
219
100
AcDbEntity
  8
0
  6
Continuous
 62
     0
370
    -2
100
AcDbLine
 10
548.3837842094
 20
291.2379275195
 30
0.0
 11
536.2530033069001
 21
291.2379275195
 31
0.0
  0
LINE
  5
A3B
330
219
100
AcDbEntity
  8
0
  6
Continuous
 62
     0
370
    -2
100
AcDbLine
 10
536.7530033069001
 20
297.2379275195
 30
0.0
 11
536.7530033069001
 21
295.2379275195
 31
0.0
  0
INSERT
  5
A3C
330
219
100
AcDbEntity
  8
0
  6
Continuous
 62
     0
370
    -2
100
AcDbBlockReference
  2
_FILLED
 10
536.7530033069001
 20
301.2379275195
 30
0.0
 41
4.0
 42
4.0
 43
4.0
 50
90.0
  0
INSERT
  5
A3D
330
219
100
AcDbEntity
  8
0
  6
Continuous
 62
     0
370
    -2
100
AcDbBlockReference
  2
_FILLED
 10
536.7530033069001
 20
291.2379275195
 30
0.0
 41
4.0
 42
4.0
 43
4.0
 50
270.0
  0
MTEXT
  5
A3E
330
219
100
AcDbEntity
  8
0
  6
Continuous
 62
     0
100
AcDbMText
 10
532.3780033069
 20
296.2363331733
 30
0.0
 40
3.5
 41
0.0
 71
     2
 72
     1
  1
\A1;10
 11
0.0000000000000001
 21
1.0
 31
0.0
 73
     1
 44
1.0
1001
ACAD
1000
MTEXTBEGIN
1070
    73
1070
     1
1070
    44
1040
1.0
1070
    74
1070
     0
1000
MTEXTEND
  0
POINT
  5
A3F
330
219
100
AcDbEntity
  8
Defpoints
  6
Continuous
 62
     0
100
AcDbPoint
 10
551.3837842094
 20
301.2379275195
 30
0.0
  0
POINT
  5
A40
330
219
100
AcDbEntity
  8
Defpoints
  6
Continuous
 62
     0
100
AcDbPoint
 10
548.3837842094
 20
291.2379275195
 30
0.0
  0
POINT
  5
A41
330
219
100
AcDbEntity
  8
Defpoints
  6
Continuous
 62
     0
100
AcDbPoint
 10
536.7530033069001
 20
291.2379275195
 30
0.0
  0
ENDBLK
  5
2AD
330
219
100
AcDbEntity
  8
0
  6
ByBlock
 62
     0
100
AcDbBlockEnd
  0
BLOCK
  5
2AE
330
21A
100
AcDbEntity
  8
0
  6
Continuous
 62
     2
100
AcDbBlockBegin
  2
*D15
 70
     1
 10
0.0
 20
0.0
 30
0.0
  3
*D15
  1

  0
LINE
  5
A2F
330
21A
100
AcDbEntity
  8
0
  6
Continuous
 62
     0
370
    -2
100
AcDbLine
 10
469.4308469123
 20
138.2545401169
 30
0.0
 11
449.8350360162
 21
138.2545401169
 31
0.0
  0
LINE
  5
A30
330
21A
100
AcDbEntity
  8
0
  6
Continuous
 62
     0
370
    -2
100
AcDbLine
 10
413.0595265687
 20
139.7545401169
 30
0.0
 11
450.8350360162
 21
139.7545401169
 31
0.0
  0
LINE
  5
A31
330
21A
100
AcDbEntity
  8
0
  6
Continuous
 62
     0
370
    -2
100
AcDbLine
 10
450.3350360162
 20
143.7545401169
 30
0.0
 11
450.3350360162
 21
147.7545401169
 31
0.0
  0
LINE
  5
A32
330
21A
100
AcDbEntity
  8
0
  6
Continuous
 62
     0
370
    -2
100
AcDbLine
 10
450.3350360162
 20
134.2545401169
 30
0.0
 11
450.3350360162
 21
117.3394573490666
 31
0.0
  0
INSERT
  5
A33
330
21A
100
AcDbEntity
  8
0
  6
Continuous
 62
     0
370
    -2
100
AcDbBlockReference
  2
_FILLED
 10
450.3350360162
 20
139.7545401169
 30
0.0
 41
4.0
 42
4.0
 43
4.0
 50
270.0
  0
INSERT
  5
A34
330
21A
100
AcDbEntity
  8
0
  6
Continuous
 62
     0
370
    -2
100
AcDbBlockReference
  2
_FILLED
 10
450.3350360162
 20
138.2545401169
 30
0.0
 41
4.0
 42
4.0
 43
4.0
 50
90.0
  0
MTEXT
  5
A35
330
21A
100
AcDbEntity
  8
0
  6
Continuous
 62
     0
100
AcDbMText
 10
445.2933693495333
 20
124.8811240157333
 30
0.0
 40
3.5
 41
0.0
 71
     3
 72
     1
  1
\A1;1,5
 11
0.0000000000000001
 21
1.0
 31
0.0
 73
     1
 44
1.0
1001
ACAD
1000
MTEXTBEGIN
1070
    73
1070
     1
1070
    44
1040
1.0
1070
    74
1070
     0
1000
MTEXTEND
  0
POINT
  5
A36
330
21A
100
AcDbEntity
  8
Defpoints
  6
Continuous
 62
     0
100
AcDbPoint
 10
469.4308469123
 20
138.2545401169
 30
0.0
  0
POINT
  5
A37
330
21A
100
AcDbEntity
  8
Defpoints
  6
Continuous
 62
     0
100
AcDbPoint
 10
413.0595265687
 20
139.7545401169
 30
0.0
  0
POINT
  5
A38
330
21A
100
AcDbEntity
  8
Defpoints
  6
Continuous
 62
     0
100
AcDbPoint
 10
450.3350360162
 20
139.7545401169
 30
0.0
  0
ENDBLK
  5
2B8
330
21A
100
AcDbEntity
  8
0
  6
ByBlock
 62
     0
100
AcDbBlockEnd
  0
BLOCK
  5
2B9
330
21B
100
AcDbEntity
  8
0
  6
Continuous
 62
     2
100
AcDbBlockBegin
  2
*D16
 70
     1
 10
0.0
 20
0.0
 30
0.0
  3
*D16
  1

  0
LINE
  5
A26
330
21B
100
AcDbEntity
  8
0
  6
Continuous
 62
     0
370
    -2
100
AcDbLine
 10
-68.19047343130001
 20
139.0045401169
 30
0.0
 11
-68.19047343130001
 21
173.0189105687
 31
0.0
  0
LINE
  5
A27
330
21B
100
AcDbEntity
  8
0
  6
Continuous
 62
     0
370
    -2
100
AcDbLine
 10
-39.1904734313
 20
153.5045401169
 30
0.0
 11
-39.1904734313
 21
173.0189105687
 31
0.0
  0
LINE
  5
A28
330
21B
100
AcDbEntity
  8
0
  6
Continuous
 62
     0
370
    -2
100
AcDbLine
 10
-64.1904734313
 20
172.5189105687
 30
0.0
 11
-43.1904734313
 21
172.5189105687
 31
0.0
  0
INSERT
  5
A29
330
21B
100
AcDbEntity
  8
0
  6
Continuous
 62
     0
370
    -2
100
AcDbBlockReference
  2
_FILLED
 10
-68.19047343130001
 20
172.5189105687
 30
0.0
 41
4.0
 42
4.0
 43
4.0
 50
180.0
  0
INSERT
  5
A2A
330
21B
100
AcDbEntity
  8
0
  6
Continuous
 62
     0
370
    -2
100
AcDbBlockReference
  2
_FILLED
 10
-39.1904734313
 20
172.5189105687
 30
0.0
 41
4.0
 42
4.0
 43
4.0
  0
MTEXT
  5
A2B
330
21B
100
AcDbEntity
  8
0
  6
Continuous
 62
     0
100
AcDbMText
 10
-53.6840393143
 20
176.8939105687
 30
0.0
 40
3.5
 41
0.0
 71
     2
 72
     1
  1
\A1;29
 73
     1
 44
1.0
1001
ACAD
1000
MTEXTBEGIN
1070
    73
1070
     1
1070
    44
1040
1.0
1070
    74
1070
     0
1000
MTEXTEND
  0
POINT
  5
A2C
330
21B
100
AcDbEntity
  8
Defpoints
  6
Continuous
 62
     0
100
AcDbPoint
 10
-68.19047343130001
 20
139.0045401169
 30
0.0
  0
POINT
  5
A2D
330
21B
100
AcDbEntity
  8
Defpoints
  6
Continuous
 62
     0
100
AcDbPoint
 10
-39.1904734313
 20
153.5045401169
 30
0.0
  0
POINT
  5
A2E
330
21B
100
AcDbEntity
  8
Defpoints
  6
Continuous
 62
     0
100
AcDbPoint
 10
-39.1904734313
 20
172.5189105687
 30
0.0
  0
ENDBLK
  5
2C1
330
21B
100
AcDbEntity
  8
0
  6
ByBlock
 62
     0
100
AcDbBlockEnd
  0
BLOCK
  5
2C2
330
21C
100
AcDbEntity
  8
0
  6
Continuous
 62
     2
100
AcDbBlockBegin
  2
*D17
 70
     1
 10
0.0
 20
0.0
 30
0.0
  3
*D17
  1

  0
LINE
  5
A1D
330
21C
100
AcDbEntity
  8
0
  6
Continuous
 62
     0
370
    -2
100
AcDbLine
 10
-39.1904734313
 20
153.5045401169
 30
0.0
 11
-39.1904734313
 21
173.0189105687
 31
0.0
  0
LINE
  5
A1E
330
21C
100
AcDbEntity
  8
0
  6
Continuous
 62
     0
370
    -2
100
AcDbLine
 10
-14.1904734313
 20
153.5045401169
 30
0.0
 11
-14.1904734313
 21
173.0189105687
 31
0.0
  0
LINE
  5
A1F
330
21C
100
AcDbEntity
  8
0
  6
Continuous
 62
     0
370
    -2
100
AcDbLine
 10
-35.1904734313
 20
172.5189105687
 30
0.0
 11
-18.1904734313
 21
172.5189105687
 31
0.0
  0
INSERT
  5
A20
330
21C
100
AcDbEntity
  8
0
  6
Continuous
 62
     0
370
    -2
100
AcDbBlockReference
  2
_FILLED
 10
-39.1904734313
 20
172.5189105687
 30
0.0
 41
4.0
 42
4.0
 43
4.0
 50
180.0
  0
INSERT
  5
A21
330
21C
100
AcDbEntity
  8
0
  6
Continuous
 62
     0
370
    -2
100
AcDbBlockReference
  2
_FILLED
 10
-14.1904734313
 20
172.5189105687
 30
0.0
 41
4.0
 42
4.0
 43
4.0
  0
MTEXT
  5
A22
330
21C
100
AcDbEntity
  8
0
  6
Continuous
 62
     0
100
AcDbMText
 10
-26.6969083557
 20
176.8939105687
 30
0.0
 40
3.5
 41
0.0
 71
     2
 72
     1
  1
\A1;25
 73
     1
 44
1.0
1001
ACAD
1000
MTEXTBEGIN
1070
    73
1070
     1
1070
    44
1040
1.0
1070
    74
1070
     0
1000
MTEXTEND
  0
POINT
  5
A23
330
21C
100
AcDbEntity
  8
Defpoints
  6
Continuous
 62
     0
100
AcDbPoint
 10
-39.1904734313
 20
153.5045401169
 30
0.0
  0
POINT
  5
A24
330
21C
100
AcDbEntity
  8
Defpoints
  6
Continuous
 62
     0
100
AcDbPoint
 10
-14.1904734313
 20
153.5045401169
 30
0.0
  0
POINT
  5
A25
330
21C
100
AcDbEntity
  8
Defpoints
  6
Continuous
 62
     0
100
AcDbPoint
 10
-14.1904734313
 20
172.5189105687
 30
0.0
  0
ENDBLK
  5
2CA
330
21C
100
AcDbEntity
  8
0
  6
ByBlock
 62
     0
100
AcDbBlockEnd
  0
BLOCK
  5
2CB
330
21D
100
AcDbEntity
  8
0
  6
Continuous
 62
     2
100
AcDbBlockBegin
  2
*D18
 70
     1
 10
0.0
 20
0.0
 30
0.0
  3
*D18
  1

  0
LINE
  5
A14
330
21D
100
AcDbEntity
  8
0
  6
Continuous
 62
     0
370
    -2
100
AcDbLine
 10
404.5595265687
 20
139.7545401169
 30
0.0
 11
508.6972816709
 21
139.7545401169
 31
0.0
  0
LINE
  5
A15
330
21D
100
AcDbEntity
  8
0
  6
Continuous
 62
     0
370
    -2
100
AcDbLine
 10
462.4803265687
 20
151.2545401169
 30
0.0
 11
508.6972816709
 21
151.2545401169
 31
0.0
  0
LINE
  5
A16
330
21D
100
AcDbEntity
  8
0
  6
Continuous
 62
     0
370
    -2
100
AcDbLine
 10
508.1972816709
 20
143.7545401169
 30
0.0
 11
508.1972816709
 21
147.2545401169
 31
0.0
  0
INSERT
  5
A17
330
21D
100
AcDbEntity
  8
0
  6
Continuous
 62
     0
370
    -2
100
AcDbBlockReference
  2
_FILLED
 10
508.1972816709
 20
139.7545401169
 30
0.0
 41
4.0
 42
4.0
 43
4.0
 50
270.0
  0
INSERT
  5
A18
330
21D
100
AcDbEntity
  8
0
  6
Continuous
 62
     0
370
    -2
100
AcDbBlockReference
  2
_FILLED
 10
508.1972816709
 20
151.2545401169
 30
0.0
 41
4.0
 42
4.0
 43
4.0
 50
90.0
  0
MTEXT
  5
A19
330
21D
100
AcDbEntity
  8
0
  6
Continuous
 62
     0
100
AcDbMText
 10
503.1556150042333
 20
145.4965110633
 30
0.0
 40
3.5
 41
0.0
 71
     2
 72
     1
  1
\A1;11,5
 11
0.0000000000000001
 21
1.0
 31
0.0
 73
     1
 44
1.0
1001
ACAD
1000
MTEXTBEGIN
1070
    73
1070
     1
1070
    44
1040
1.0
1070
    74
1070
     0
1000
MTEXTEND
  0
POINT
  5
A1A
330
21D
100
AcDbEntity
  8
Defpoints
  6
Continuous
 62
     0
100
AcDbPoint
 10
404.5595265687
 20
139.7545401169
 30
0.0
  0
POINT
  5
A1B
330
21D
100
AcDbEntity
  8
Defpoints
  6
Continuous
 62
     0
100
AcDbPoint
 10
462.4803265687
 20
151.2545401169
 30
0.0
  0
POINT
  5
A1C
330
21D
100
AcDbEntity
  8
Defpoints
  6
Continuous
 62
     0
100
AcDbPoint
 10
508.1972816709
 20
151.2545401169
 30
0.0
  0
ENDBLK
  5
2D5
330
21D
100
AcDbEntity
  8
0
  6
ByBlock
 62
     0
100
AcDbBlockEnd
  0
BLOCK
  5
2D6
330
21E
100
AcDbEntity
  8
0
  6
Continuous
 62
     2
100
AcDbBlockBegin
  2
*D19
 70
     1
 10
0.0
 20
0.0
 30
0.0
  3
*D19
  1

  0
LINE
  5
A0A
330
21E
100
AcDbEntity
  8
0
  6
Continuous
 62
     0
370
    -2
100
AcDbLine
 10
292.0595265687
 20
294.9879275195
 30
0.0
 11
292.0595265687
 21
311.2513842065
 31
0.0
  0
LINE
  5
A0B
330
21E
100
AcDbEntity
  8
0
  6
Continuous
 62
     0
370
    -2
100
AcDbLine
 10
304.5595265687
 20
294.9879275195
 30
0.0
 11
304.5595265687
 21
311.2513842065
 31
0.0
  0
LINE
  5
A0C
330
21E
100
AcDbEntity
  8
0
  6
Continuous
 62
     0
370
    -2
100
AcDbLine
 10
300.5595265687
 20
310.7513842065
 30
0.0
 11
296.0595265687
 21
310.7513842065
 31
0.0
  0
LINE
  5
A0D
330
21E
100
AcDbEntity
  8
0
  6
Continuous
 62
     0
370
    -2
100
AcDbLine
 10
292.0595265687
 20
310.7513842065
 30
0.0
 11
276.3095265687
 21
310.7513842065
 31
0.0
  0
INSERT
  5
A0E
330
21E
100
AcDbEntity
  8
0
  6
Continuous
 62
     0
370
    -2
100
AcDbBlockReference
  2
_FILLED
 10
304.5595265687
 20
310.7513842065
 30
0.0
 41
4.0
 42
4.0
 43
4.0
  0
INSERT
  5
A0F
330
21E
100
AcDbEntity
  8
0
  6
Continuous
 62
     0
370
    -2
100
AcDbBlockReference
  2
_FILLED
 10
292.0595265687
 20
310.7513842065
 30
0.0
 41
4.0
 42
4.0
 43
4.0
 50
180.0
  0
MTEXT
  5
A10
330
21E
100
AcDbEntity
  8
0
  6
Continuous
 62
     0
100
AcDbMText
 10
287.1845265687
 20
315.7930508731666
 30
0.0
 40
3.5
 41
0.0
 71
     3
 72
     1
  1
\A1;12,5
 73
     1
 44
1.0
1001
ACAD
1000
MTEXTBEGIN
1070
    73
1070
     1
1070
    44
1040
1.0
1070
    74
1070
     0
1000
MTEXTEND
  0
POINT
  5
A11
330
21E
100
AcDbEntity
  8
Defpoints
  6
Continuous
 62
     0
100
AcDbPoint
 10
292.0595265687
 20
294.9879275195
 30
0.0
  0
POINT
  5
A12
330
21E
100
AcDbEntity
  8
Defpoints
  6
Continuous
 62
     0
100
AcDbPoint
 10
304.5595265687
 20
294.9879275195
 30
0.0
  0
POINT
  5
A13
330
21E
100
AcDbEntity
  8
Defpoints
  6
Continuous
 62
     0
100
AcDbPoint
 10
304.5595265687
 20
310.7513842065
 30
0.0
  0
ENDBLK
  5
2DF
330
21E
100
AcDbEntity
  8
0
  6
ByBlock
 62
     0
100
AcDbBlockEnd
  0
BLOCK
  5
2E0
330
21F
100
AcDbEntity
  8
0
  6
Continuous
 62
     2
100
AcDbBlockBegin
  2
*D20
 70
     1
 10
0.0
 20
0.0
 30
0.0
  3
*D20
  1

  0
LINE
  5
A00
330
21F
100
AcDbEntity
  8
0
  6
Continuous
 62
     0
370
    -2
100
AcDbLine
 10
317.0595265687
 20
294.9879275195
 30
0.0
 11
324.6125493761001
 21
294.9879275195
 31
0.0
  0
LINE
  5
A01
330
21F
100
AcDbEntity
  8
0
  6
Continuous
 62
     0
370
    -2
100
AcDbLine
 10
317.0595265687
 20
284.4879275195
 30
0.0
 11
324.6125493761001
 21
284.4879275195
 31
0.0
  0
LINE
  5
A02
330
21F
100
AcDbEntity
  8
0
  6
Continuous
 62
     0
370
    -2
100
AcDbLine
 10
324.1125493761
 20
288.4879275195
 30
0.0
 11
324.1125493761
 21
290.9879275195
 31
0.0
  0
LINE
  5
A03
330
21F
100
AcDbEntity
  8
0
  6
Continuous
 62
     0
370
    -2
100
AcDbLine
 10
324.1125493761
 20
294.9879275195
 30
0.0
 11
324.1125493761
 21
317.4144625289999
 31
0.0
  0
INSERT
  5
A04
330
21F
100
AcDbEntity
  8
0
  6
Continuous
 62
     0
370
    -2
100
AcDbBlockReference
  2
_FILLED
 10
324.1125493761
 20
284.4879275195
 30
0.0
 41
4.0
 42
4.0
 43
4.0
 50
270.0
  0
INSERT
  5
A05
330
21F
100
AcDbEntity
  8
0
  6
Continuous
 62
     0
370
    -2
100
AcDbBlockReference
  2
_FILLED
 10
324.1125493761
 20
294.9879275195
 30
0.0
 41
4.0
 42
4.0
 43
4.0
 50
90.0
  0
MTEXT
  5
A06
330
21F
100
AcDbEntity
  8
0
  6
Continuous
 62
     0
100
AcDbMText
 10
319.0708827094334
 20
306.539462529
 30
0.0
 40
3.5
 41
0.0
 71
     1
 72
     1
  1
\A1;10,5
 11
0.0000000000000001
 21
1.0
 31
0.0
 73
     1
 44
1.0
1001
ACAD
1000
MTEXTBEGIN
1070
    73
1070
     1
1070
    44
1040
1.0
1070
    74
1070
     0
1000
MTEXTEND
  0
POINT
  5
A07
330
21F
100
AcDbEntity
  8
Defpoints
  6
Continuous
 62
     0
100
AcDbPoint
 10
317.0595265687
 20
294.9879275195
 30
0.0
  0
POINT
  5
A08
330
21F
100
AcDbEntity
  8
Defpoints
  6
Continuous
 62
     0
100
AcDbPoint
 10
317.0595265687
 20
284.4879275195
 30
0.0
  0
POINT
  5
A09
330
21F
100
AcDbEntity
  8
Defpoints
  6
Continuous
 62
     0
100
AcDbPoint
 10
324.1125493761
 20
284.4879275195
 30
0.0
  0
ENDBLK
  5
2E7
330
21F
100
AcDbEntity
  8
0
  6
ByBlock
 62
     0
100
AcDbBlockEnd
  0
BLOCK
  5
2E8
330
220
100
AcDbEntity
  8
0
  6
Continuous
 62
     2
100
AcDbBlockBegin
  2
*D21
 70
     1
 10
0.0
 20
0.0
 30
0.0
  3
*D21
  1

  0
LINE
  5
9F7
330
220
100
AcDbEntity
  8
0
  6
Continuous
 62
     0
370
    -2
100
AcDbLine
 10
-39.1904734313
 20
289.7379275195
 30
0.0
 11
-39.1904734313
 21
316.4867494583
 31
0.0
  0
LINE
  5
9F8
330
220
100
AcDbEntity
  8
0
  6
Continuous
 62
     0
370
    -2
100
AcDbLine
 10
-26.6904734313
 20
294.9879275195
 30
0.0
 11
-26.6904734313
 21
316.4867494583
 31
0.0
  0
LINE
  5
9F9
330
220
100
AcDbEntity
  8
0
  6
Continuous
 62
     0
370
    -2
100
AcDbLine
 10
-35.1904734313
 20
315.9867494583
 30
0.0
 11
-30.6904734313
 21
315.9867494583
 31
0.0
  0
INSERT
  5
9FA
330
220
100
AcDbEntity
  8
0
  6
Continuous
 62
     0
370
    -2
100
AcDbBlockReference
  2
_FILLED
 10
-39.1904734313
 20
315.9867494583
 30
0.0
 41
4.0
 42
4.0
 43
4.0
 50
180.0
  0
INSERT
  5
9FB
330
220
100
AcDbEntity
  8
0
  6
Continuous
 62
     0
370
    -2
100
AcDbBlockReference
  2
_FILLED
 10
-26.6904734313
 20
315.9867494583
 30
0.0
 41
4.0
 42
4.0
 43
4.0
  0
MTEXT
  5
9FC
330
220
100
AcDbEntity
  8
0
  6
Continuous
 62
     0
100
AcDbMText
 10
-32.9469079971
 20
321.0284161249667
 30
0.0
 40
3.5
 41
0.0
 71
     2
 72
     1
  1
\A1;12,5
 73
     1
 44
1.0
1001
ACAD
1000
MTEXTBEGIN
1070
    73
1070
     1
1070
    44
1040
1.0
1070
    74
1070
     0
1000
MTEXTEND
  0
POINT
  5
9FD
330
220
100
AcDbEntity
  8
Defpoints
  6
Continuous
 62
     0
100
AcDbPoint
 10
-39.1904734313
 20
289.7379275195
 30
0.0
  0
POINT
  5
9FE
330
220
100
AcDbEntity
  8
Defpoints
  6
Continuous
 62
     0
100
AcDbPoint
 10
-26.6904734313
 20
294.9879275195
 30
0.0
  0
POINT
  5
9FF
330
220
100
AcDbEntity
  8
Defpoints
  6
Continuous
 62
     0
100
AcDbPoint
 10
-26.6904734313
 20
315.9867494583
 30
0.0
  0
ENDBLK
  5
2F0
330
220
100
AcDbEntity
  8
0
  6
ByBlock
 62
     0
100
AcDbBlockEnd
  0
ENDSEC
  0
SECTION
  2
ENTITIES
  0
DIMENSION
  5
2F1
330
209
100
AcDbEntity
  8
0
  6
Continuous
 62
     7
100
AcDbDimension
  2
*D1
 10
585.7893641798
 20
253.2379275195
 30
0.0
 11
585.7893641798
 21
277.2379391511
 31
0.0
 70
   160
 71
     2
 42
48.00000000000003
  3
DIMSTYLE_1
100
AcDbAlignedDimension
 13
568.3837842094
 23
301.2379275195
 33
0.0
 14
568.3837842094
 24
253.2379275195
 34
0.0
 50
270.0
100
AcDbRotatedDimension
  0
DIMENSION
  5
2F2
330
209
100
AcDbEntity
  8
0
  6
Continuous
 62
     7
100
AcDbDimension
  2
*D2
 10
571.3837842094
 20
313.1839304001
 30
0.0
 11
559.9159508057
 21
313.1839304001
 31
0.0
 70
   160
 71
     2
 42
23.0
  3
DIMSTYLE_2
100
AcDbAlignedDimension
 13
548.3837842094
 23
298.2379275195
 33
0.0
 14
571.3837842094
 24
298.2379275195
 34
0.0
100
AcDbRotatedDimension
  0
DIMENSION
  5
2F3
330
209
100
AcDbEntity
  8
0
  6
Continuous
 62
     7
100
AcDbDimension
  2
*D3
 10
548.3837842094
 20
271.7929933852
 30
0.0
 11
536.1754508760666
 21
271.7929933852
 31
0.0
 70
   160
 71
     3
 42
1.5
  3
DIMSTYLE_3
100
AcDbAlignedDimension
 13
549.8837842093999
 23
263.2379275195
 33
0.0
 14
548.3837842094
 24
263.2379275195
 34
0.0
 50
180.0
100
AcDbRotatedDimension
  0
DIMENSION
  5
2F4
330
209
100
AcDbEntity
  8
0
  6
Continuous
 62
     7
100
AcDbDimension
  2
*D4
 10
-68.19047343130001
 20
206.1649985035
 30
0.0
 11
210.8095268555
 21
206.1649985035
 31
0.0
 70
   160
 71
     2
 42
558.0
  3
DIMSTYLE_4
100
AcDbAlignedDimension
 13
489.8095265687
 23
261.2379275195
 33
0.0
 14
-68.19047343130001
 24
277.2379275195
 34
0.0
 50
180.0
100
AcDbRotatedDimension
  0
DIMENSION
  5
2F5
330
209
100
AcDbEntity
  8
0
  6
Continuous
 62
     7
100
AcDbDimension
  2
*D5
 10
-44.19047343129999
 20
237.1297903415
 30
0.0
 11
210.8047049561
 21
237.1297903415
 31
0.0
 70
   160
 71
     2
 42
510.0
  3
DIMSTYLE_4
100
AcDbAlignedDimension
 13
465.8095265687
 23
253.2379275195
 33
0.0
 14
-44.19047343129999
 24
253.2379275195
 34
0.0
 50
180.0
100
AcDbRotatedDimension
  0
DIMENSION
  5
2F6
330
209
100
AcDbEntity
  8
0
  6
Continuous
 62
     7
100
AcDbDimension
  2
*D6
 10
480.8095265687
 20
220.3131133655
 30
0.0
 11
210.8063092346
 21
220.3131133655
 31
0.0
 70
   160
 71
     2
 42
540.0
  3
DIMSTYLE_4
100
AcDbAlignedDimension
 13
-59.19047343129999
 23
261.3379275195
 33
0.0
 14
480.8095265687
 24
261.3379275195
 34
0.0
100
AcDbRotatedDimension
  0
DIMENSION
  5
2F7
330
209
100
AcDbEntity
  8
0
  6
Continuous
 62
     7
100
AcDbDimension
  2
*D7
 10
515.9927640040002
 20
256.2379275195
 30
0.0
 11
515.992764004
 21
277.2443612263
 31
0.0
 70
   160
 71
     2
 42
42.0
  3
DIMSTYLE_1
100
AcDbAlignedDimension
 13
477.1201867404999
 23
298.2379275195
 33
0.0
 14
477.1201867404999
 24
256.2379275195
 34
0.0
 50
270.0
100
AcDbRotatedDimension
  0
DIMENSION
  5
2F8
330
209
100
AcDbEntity
  8
0
  6
Continuous
 62
     7
100
AcDbDimension
  2
*D8
 10
502.9695640964
 20
264.7379275195
 30
0.0
 11
502.9695640964
 21
277.2314928679
 31
0.0
 70
   160
 71
     2
 42
25.0
  3
DIMSTYLE_2
100
AcDbAlignedDimension
 13
485.9595265687
 23
289.7379275195
 33
0.0
 14
485.9595265687
 24
264.7379275195
 34
0.0
 50
270.0
100
AcDbRotatedDimension
  0
DIMENSION
  5
2F9
330
209
100
AcDbEntity
  8
0
  6
Continuous
 62
     7
100
AcDbDimension
  2
*D9
 10
-78.09241132719995
 20
286.3379275195
 30
0.0
 11
-78.0924113272
 21
306.7384924011
 31
0.0
 70
   160
 42
6.800000000000011
  3
DIMSTYLE_2
100
AcDbAlignedDimension
 13
-60.9404734313
 23
293.1379275195
 33
0.0
 14
-60.9404734313
 24
286.3379275195
 34
0.0
 50
270.0
100
AcDbRotatedDimension
  0
DIMENSION
  5
2FA
330
209
100
AcDbEntity
  8
0
  6
Continuous
 62
     7
100
AcDbDimension
  2
*D10
 10
-64.3404734313
 20
315.9768690749
 30
0.0
 11
-59.19047343129999
 21
315.9768690749
 31
0.0
 70
   160
 71
     2
 42
10.3
  3
DIMSTYLE_2
100
AcDbAlignedDimension
 13
-54.0404734313
 23
289.7379275195
 33
0.0
 14
-64.3404734313
 24
289.7379275195
 34
0.0
 50
180.0
100
AcDbRotatedDimension
  0
DIMENSION
  5
2FB
330
209
100
AcDbEntity
  8
0
  6
Continuous
 62
     7
100
AcDbDimension
  2
*D11
 10
-39.1904734313
 20
333.2332431701
 30
0.0
 11
-53.6840393143
 21
333.2332431701
 31
0.0
 70
   160
 71
     2
 42
29.00000000000001
  3
DIMSTYLE_2
100
AcDbAlignedDimension
 13
-68.19047343130001
 23
293.2379275195
 33
0.0
 14
-39.1904734313
 24
289.7379275195
 34
0.0
100
AcDbRotatedDimension
  0
DIMENSION
  5
2FC
330
209
100
AcDbEntity
  8
0
  6
Continuous
 62
     7
100
AcDbDimension
  2
*D12
 10
-14.1904734313
 20
333.0739578545
 30
0.0
 11
-26.6969083557
 21
333.0739578545
 31
0.0
 70
   160
 71
     2
 42
25.0
  3
DIMSTYLE_2
100
AcDbAlignedDimension
 13
-39.1904734313
 23
289.7379275195
 33
0.0
 14
-14.1904734313
 24
289.7379275195
 34
0.0
100
AcDbRotatedDimension
  0
DIMENSION
  5
2FD
330
209
100
AcDbEntity
  8
0
  6
Continuous
 62
     7
100
AcDbDimension
  2
*D13
 10
159.7844682989527
 20
287.7349907896319
 30
0.0
 11
179.6428145151999
 21
315.0580792118999
 31
0.0
 70
   163
  1
%%c<>
 42
4.500000000014097
  3
DIMSTYLE_5
100
AcDbDiametricDimension
 15
161.8345848384473
 25
291.740864249268
 35
0.0
 40
0.0
1001
ACAD
1000
DSTYLE
1002
{
1070
    73
1070
     1
1070
    74
1070
     1
1002
}
  0
DIMENSION
  5
2FE
330
209
100
AcDbEntity
  8
0
  6
Continuous
 62
     7
100
AcDbDimension
  2
*D14
 10
536.7530033069001
 20
291.2379275195
 30
0.0
 11
536.7530033069
 21
296.2363331733
 31
0.0
 70
   160
 71
     2
 42
10.0
  3
DIMSTYLE_2
100
AcDbAlignedDimension
 13
551.3837842094
 23
301.2379275195
 33
0.0
 14
548.3837842094
 24
291.2379275195
 34
0.0
 50
270.0
100
AcDbRotatedDimension
  0
DIMENSION
  5
2FF
330
209
100
AcDbEntity
  8
0
  6
Continuous
 62
     7
100
AcDbDimension
  2
*D15
 10
450.3350360162
 20
139.7545401169
 30
0.0
 11
450.3350360162
 21
121.5477906824
 31
0.0
 70
   160
 71
     3
 42
1.499999999999971
  3
DIMSTYLE_3
100
AcDbAlignedDimension
 13
469.4308469123
 23
138.2545401169
 33
0.0
 14
413.0595265687
 24
139.7545401169
 34
0.0
 50
90.0
100
AcDbRotatedDimension
  0
DIMENSION
  5
300
330
209
100
AcDbEntity
  8
0
  6
Continuous
 62
     7
100
AcDbDimension
  2
*D16
 10
-39.1904734313
 20
172.5189105687
 30
0.0
 11
-53.6840393143
 21
172.5189105687
 31
0.0
 70
   160
 71
     2
 42
29.00000000000001
  3
DIMSTYLE_2
100
AcDbAlignedDimension
 13
-68.19047343130001
 23
139.0045401169
 33
0.0
 14
-39.1904734313
 24
153.5045401169
 34
0.0
100
AcDbRotatedDimension
  0
DIMENSION
  5
301
330
209
100
AcDbEntity
  8
0
  6
Continuous
 62
     7
100
AcDbDimension
  2
*D17
 10
-14.1904734313
 20
172.5189105687
 30
0.0
 11
-26.6969083557
 21
172.5189105687
 31
0.0
 70
   160
 71
     2
 42
25.0
  3
DIMSTYLE_2
100
AcDbAlignedDimension
 13
-39.1904734313
 23
153.5045401169
 33
0.0
 14
-14.1904734313
 24
153.5045401169
 34
0.0
100
AcDbRotatedDimension
  0
DIMENSION
  5
302
330
209
100
AcDbEntity
  8
0
  6
Continuous
 62
     7
100
AcDbDimension
  2
*D18
 10
508.1972816709
 20
151.2545401169
 30
0.0
 11
508.1972816708999
 21
145.4965110633
 31
0.0
 70
   160
 71
     2
 42
11.50000000000003
  3
DIMSTYLE_2
100
AcDbAlignedDimension
 13
404.5595265687
 23
139.7545401169
 33
0.0
 14
462.4803265687
 24
151.2545401169
 34
0.0
 50
90.0
100
AcDbRotatedDimension
  0
DIMENSION
  5
303
330
209
100
AcDbEntity
  8
0
  6
Continuous
 62
     7
100
AcDbDimension
  2
*D19
 10
304.5595265687
 20
310.7513842065
 30
0.0
 11
282.1845265687
 21
310.7513842065
 31
0.0
 70
   160
 71
     3
 42
12.5
  3
DIMSTYLE_2
100
AcDbAlignedDimension
 13
292.0595265687
 23
294.9879275195
 33
0.0
 14
304.5595265687
 24
294.9879275195
 34
0.0
100
AcDbRotatedDimension
  0
DIMENSION
  5
304
330
209
100
AcDbEntity
  8
0
  6
Continuous
 62
     7
100
AcDbDimension
  2
*D20
 10
324.1125493761
 20
284.4879275195
 30
0.0
 11
324.1125493761
 21
311.539462529
 31
0.0
 70
   160
 42
10.5
  3
DIMSTYLE_2
100
AcDbAlignedDimension
 13
317.0595265687
 23
294.9879275195
 33
0.0
 14
317.0595265687
 24
284.4879275195
 34
0.0
 50
270.0
100
AcDbRotatedDimension
  0
DIMENSION
  5
305
330
209
100
AcDbEntity
  8
0
  6
Continuous
 62
     7
100
AcDbDimension
  2
*D21
 10
-26.6904734313
 20
315.9867494583
 30
0.0
 11
-32.9469079971
 21
315.9867494583
 31
0.0
 70
   160
 71
     2
 42
12.5
  3
DIMSTYLE_2
100
AcDbAlignedDimension
 13
-39.1904734313
 23
289.7379275195
 33
0.0
 14
-26.6904734313
 24
294.9879275195
 34
0.0
100
AcDbRotatedDimension
  0
MTEXT
  5
306
330
209
100
AcDbEntity
  8
0
  6
Continuous
 62
     7
100
AcDbMText
 10
261.4727604347988
 20
389.8039308231
 30
0.0
 40
10.0
 41
334.4571830105165
 71
     2
 72
     1
  1
Профиль монтажный EMS-PRM-48.23.600\P(Масштаб 1:1)
 73
     1
 44
0.9
1001
ACAD
1000
MTEXTBEGIN
1070
    73
1070
     1
1070
    44
1040
0.9
1070
    74
1070
     0
1000
MTEXTEND
  0
LINE
  5
307
330
209
100
AcDbEntity
  8
0
  6
Continuous
 62
     7
100
AcDbLine
 10
-105.0573428007899
 20
0.0
 30
0.0
 11
-105.0573428007899
 21
420.0
 31
0.0
  0
LINE
  5
308
330
209
100
AcDbEntity
  8
0
  6
Continuous
 62
     7
100
AcDbLine
 10
-105.0573428007899
 20
0.0
 30
0.0
 11
594.0
 21
0.0
 31
0.0
  0
LINE
  5
309
330
209
100
AcDbEntity
  8
0
  6
Continuous
 62
     7
100
AcDbLine
 10
-105.0573428007899
 20
420.0
 30
0.0
 11
594.0
 21
420.0
 31
0.0
  0
LINE
  5
30A
330
209
100
AcDbEntity
  8
0
  6
Continuous
 62
     7
100
AcDbLine
 10
594.0
 20
0.0
 30
0.0
 11
594.0
 21
420.0
 31
0.0
  0
LINE
  5
30B
330
209
100
AcDbEntity
  8
0
  6
Continuous
 62
     7
100
AcDbLine
 10
-68.19047343130001
 20
293.2379275195
 30
0.0
 11
-68.19047343130001
 21
261.2379275195
 31
0.0
  0
LINE
  5
30C
330
209
100
AcDbEntity
  8
0
  6
Continuous
 62
     7
100
AcDbLine
 10
-47.81179377489999
 20
298.2379275195
 30
0.0
 11
-47.81179377489999
 21
256.2379275195
 31
0.0
  0
LINE
  5
30D
330
209
100
AcDbEntity
  8
0
  6
Continuous
 62
     7
100
AcDbLine
 10
-45.6904734313
 20
298.2379275195
 30
0.0
 11
-45.6904734313
 21
256.2379275195
 31
0.0
  0
LINE
  5
30F
330
209
100
AcDbEntity
  8
0
  6
Continuous
 62
     7
100
AcDbLine
 10
-44.44783274419999
 20
298.2379275195
 30
0.0
 11
-44.44783274419999
 21
256.2379275195
 31
0.0
  0
LINE
  5
310
330
209
100
AcDbEntity
  8
0
  6
Continuous
 62
     7
100
AcDbLine
 10
-44.19047343129999
 20
256.2379275195
 30
0.0
 11
-44.19047343129999
 21
253.2379275195
 31
0.0
  0
LINE
  5
311
330
209
100
AcDbEntity
  8
0
  6
Continuous
 62
     7
100
AcDbLine
 10
-44.19047343129999
 20
298.2379275195
 30
0.0
 11
-44.19047343129999
 21
301.2379275195
 31
0.0
  0
LINE
  5
312
330
209
100
AcDbEntity
  8
02___PRT_ALL_AXES
  6
Continuous
 62
     7
100
AcDbLine
 10
-32.9404734313
 20
259.4879275195
 30
0.0
 11
-32.9404734313
 21
269.9879275195
 31
0.0
  0
LINE
  5
313
330
209
100
AcDbEntity
  8
02___PRT_ALL_AXES
  6
Continuous
 62
     7
100
AcDbLine
 10
-32.9404734313
 20
284.4879275195
 30
0.0
 11
-32.9404734313
 21
294.9879275195
 31
0.0
  0
LINE
  5
314
330
209
100
AcDbEntity
  8
02___PRT_ALL_AXES
  6
Continuous
 62
     7
100
AcDbLine
 10
-20.4404734313
 20
294.9879275195
 30
0.0
 11
-20.4404734313
 21
284.4879275195
 31
0.0
  0
LINE
  5
315
330
209
100
AcDbEntity
  8
02___PRT_ALL_AXES
  6
Continuous
 62
     7
100
AcDbLine
 10
-20.4404734313
 20
269.9879275195
 30
0.0
 11
-20.4404734313
 21
259.4879275195
 31
0.0
  0
LINE
  5
316
330
209
100
AcDbEntity
  8
02___PRT_ALL_AXES
  6
Continuous
 62
     7
100
AcDbLine
 10
-7.9404734313
 20
259.4879275195
 30
0.0
 11
-7.9404734313
 21
269.9879275195
 31
0.0
  0
LINE
  5
317
330
209
100
AcDbEntity
  8
02___PRT_ALL_AXES
  6
Continuous
 62
     7
100
AcDbLine
 10
-7.9404734313
 20
284.4879275195
 30
0.0
 11
-7.9404734313
 21
294.9879275195
 31
0.0
  0
LINE
  5
318
330
209
100
AcDbEntity
  8
02___PRT_ALL_AXES
  6
Continuous
 62
     7
100
AcDbLine
 10
4.559526568699999
 20
294.9879275195
 30
0.0
 11
4.559526568699999
 21
284.4879275195
 31
0.0
  0
LINE
  5
319
330
209
100
AcDbEntity
  8
02___PRT_ALL_AXES
  6
Continuous
 62
     7
100
AcDbLine
 10
4.559526568699999
 20
269.9879275195
 30
0.0
 11
4.559526568699999
 21
259.4879275195
 31
0.0
  0
LINE
  5
31A
330
209
100
AcDbEntity
  8
02___PRT_ALL_AXES
  6
Continuous
 62
     7
100
AcDbLine
 10
17.0595265687
 20
259.4879275195
 30
0.0
 11
17.0595265687
 21
269.9879275195
 31
0.0
  0
LINE
  5
31B
330
209
100
AcDbEntity
  8
02___PRT_ALL_AXES
  6
Continuous
 62
     7
100
AcDbLine
 10
17.0595265687
 20
284.4879275195
 30
0.0
 11
17.0595265687
 21
294.9879275195
 31
0.0
  0
LINE
  5
31C
330
209
100
AcDbEntity
  8
02___PRT_ALL_AXES
  6
Continuous
 62
     7
100
AcDbLine
 10
29.5595265687
 20
294.9879275195
 30
0.0
 11
29.5595265687
 21
284.4879275195
 31
0.0
  0
LINE
  5
31D
330
209
100
AcDbEntity
  8
02___PRT_ALL_AXES
  6
Continuous
 62
     7
100
AcDbLine
 10
29.5595265687
 20
269.9879275195
 30
0.0
 11
29.5595265687
 21
259.4879275195
 31
0.0
  0
LINE
  5
31E
330
209
100
AcDbEntity
  8
02___PRT_ALL_AXES
  6
Continuous
 62
     7
100
AcDbLine
 10
42.0595265687
 20
259.4879275195
 30
0.0
 11
42.0595265687
 21
269.9879275195
 31
0.0
  0
LINE
  5
31F
330
209
100
AcDbEntity
  8
02___PRT_ALL_AXES
  6
Continuous
 62
     7
100
AcDbLine
 10
42.0595265687
 20
284.4879275195
 30
0.0
 11
42.0595265687
 21
294.9879275195
 31
0.0
  0
LINE
  5
320
330
209
100
AcDbEntity
  8
02___PRT_ALL_AXES
  6
Continuous
 62
     7
100
AcDbLine
 10
54.5595265687
 20
294.9879275195
 30
0.0
 11
54.5595265687
 21
284.4879275195
 31
0.0
  0
LINE
  5
321
330
209
100
AcDbEntity
  8
02___PRT_ALL_AXES
  6
Continuous
 62
     7
100
AcDbLine
 10
54.5595265687
 20
269.9879275195
 30
0.0
 11
54.5595265687
 21
259.4879275195
 31
0.0
  0
LINE
  5
322
330
209
100
AcDbEntity
  8
02___PRT_ALL_AXES
  6
Continuous
 62
     7
100
AcDbLine
 10
67.0595265687
 20
259.4879275195
 30
0.0
 11
67.0595265687
 21
269.9879275195
 31
0.0
  0
LINE
  5
323
330
209
100
AcDbEntity
  8
02___PRT_ALL_AXES
  6
Continuous
 62
     7
100
AcDbLine
 10
67.0595265687
 20
284.4879275195
 30
0.0
 11
67.0595265687
 21
294.9879275195
 31
0.0
  0
LINE
  5
324
330
209
100
AcDbEntity
  8
02___PRT_ALL_AXES
  6
Continuous
 62
     7
100
AcDbLine
 10
79.5595265687
 20
294.9879275195
 30
0.0
 11
79.5595265687
 21
284.4879275195
 31
0.0
  0
LINE
  5
325
330
209
100
AcDbEntity
  8
02___PRT_ALL_AXES
  6
Continuous
 62
     7
100
AcDbLine
 10
79.5595265687
 20
269.9879275195
 30
0.0
 11
79.5595265687
 21
259.4879275195
 31
0.0
  0
LINE
  5
326
330
209
100
AcDbEntity
  8
02___PRT_ALL_AXES
  6
Continuous
 62
     7
100
AcDbLine
 10
92.05952656870001
 20
259.4879275195
 30
0.0
 11
92.05952656870001
 21
269.9879275195
 31
0.0
  0
LINE
  5
327
330
209
100
AcDbEntity
  8
02___PRT_ALL_AXES
  6
Continuous
 62
     7
100
AcDbLine
 10
92.05952656870001
 20
284.4879275195
 30
0.0
 11
92.05952656870001
 21
294.9879275195
 31
0.0
  0
LINE
  5
328
330
209
100
AcDbEntity
  8
02___PRT_ALL_AXES
  6
Continuous
 62
     7
100
AcDbLine
 10
104.5595265687
 20
294.9879275195
 30
0.0
 11
104.5595265687
 21
284.4879275195
 31
0.0
  0
LINE
  5
329
330
209
100
AcDbEntity
  8
02___PRT_ALL_AXES
  6
Continuous
 62
     7
100
AcDbLine
 10
104.5595265687
 20
269.9879275195
 30
0.0
 11
104.5595265687
 21
259.4879275195
 31
0.0
  0
LINE
  5
32A
330
209
100
AcDbEntity
  8
02___PRT_ALL_AXES
  6
Continuous
 62
     7
100
AcDbLine
 10
117.0595265687
 20
259.4879275195
 30
0.0
 11
117.0595265687
 21
269.9879275195
 31
0.0
  0
LINE
  5
32B
330
209
100
AcDbEntity
  8
02___PRT_ALL_AXES
  6
Continuous
 62
     7
100
AcDbLine
 10
117.0595265687
 20
284.4879275195
 30
0.0
 11
117.0595265687
 21
294.9879275195
 31
0.0
  0
LINE
  5
32C
330
209
100
AcDbEntity
  8
02___PRT_ALL_AXES
  6
Continuous
 62
     7
100
AcDbLine
 10
129.5595265687
 20
294.9879275195
 30
0.0
 11
129.5595265687
 21
284.4879275195
 31
0.0
  0
LINE
  5
32D
330
209
100
AcDbEntity
  8
02___PRT_ALL_AXES
  6
Continuous
 62
     7
100
AcDbLine
 10
129.5595265687
 20
269.9879275195
 30
0.0
 11
129.5595265687
 21
259.4879275195
 31
0.0
  0
LINE
  5
32E
330
209
100
AcDbEntity
  8
02___PRT_ALL_AXES
  6
Continuous
 62
     7
100
AcDbLine
 10
142.0595265687
 20
259.4879275195
 30
0.0
 11
142.0595265687
 21
269.9879275195
 31
0.0
  0
LINE
  5
32F
330
209
100
AcDbEntity
  8
02___PRT_ALL_AXES
  6
Continuous
 62
     7
100
AcDbLine
 10
142.0595265687
 20
284.4879275195
 30
0.0
 11
142.0595265687
 21
294.9879275195
 31
0.0
  0
LINE
  5
330
330
209
100
AcDbEntity
  8
02___PRT_ALL_AXES
  6
Continuous
 62
     7
100
AcDbLine
 10
154.5595265687
 20
294.9879275195
 30
0.0
 11
154.5595265687
 21
284.4879275195
 31
0.0
  0
LINE
  5
331
330
209
100
AcDbEntity
  8
02___PRT_ALL_AXES
  6
Continuous
 62
     7
100
AcDbLine
 10
154.5595265687
 20
269.9879275195
 30
0.0
 11
154.5595265687
 21
259.4879275195
 31
0.0
  0
LINE
  5
332
330
209
100
AcDbEntity
  8
02___PRT_ALL_AXES
  6
Continuous
 62
     7
100
AcDbLine
 10
167.0595265687
 20
259.4879275195
 30
0.0
 11
167.0595265687
 21
269.9879275195
 31
0.0
  0
LINE
  5
333
330
209
100
AcDbEntity
  8
02___PRT_ALL_AXES
  6
Continuous
 62
     7
100
AcDbLine
 10
167.0595265687
 20
284.4879275195
 30
0.0
 11
167.0595265687
 21
294.9879275195
 31
0.0
  0
LINE
  5
334
330
209
100
AcDbEntity
  8
02___PRT_ALL_AXES
  6
Continuous
 62
     7
100
AcDbLine
 10
179.5595265687
 20
294.9879275195
 30
0.0
 11
179.5595265687
 21
284.4879275195
 31
0.0
  0
LINE
  5
335
330
209
100
AcDbEntity
  8
02___PRT_ALL_AXES
  6
Continuous
 62
     7
100
AcDbLine
 10
179.5595265687
 20
269.9879275195
 30
0.0
 11
179.5595265687
 21
259.4879275195
 31
0.0
  0
LINE
  5
336
330
209
100
AcDbEntity
  8
02___PRT_ALL_AXES
  6
Continuous
 62
     7
100
AcDbLine
 10
192.0595265687
 20
259.4879275195
 30
0.0
 11
192.0595265687
 21
269.9879275195
 31
0.0
  0
LINE
  5
337
330
209
100
AcDbEntity
  8
02___PRT_ALL_AXES
  6
Continuous
 62
     7
100
AcDbLine
 10
192.0595265687
 20
284.4879275195
 30
0.0
 11
192.0595265687
 21
294.9879275195
 31
0.0
  0
LINE
  5
338
330
209
100
AcDbEntity
  8
0
  6
Continuous
 62
     7
100
AcDbLine
 10
465.8095265687
 20
253.2379275195
 30
0.0
 11
-44.19047343129999
 21
253.2379275195
 31
0.0
  0
LINE
  5
33A
330
209
100
AcDbEntity
  8
0
  6
Continuous
 62
     7
100
AcDbLine
 10
-44.19047343129999
 20
256.2379275195
 30
0.0
 11
-63.1904734313
 21
256.2379275195
 31
0.0
  0
LINE
  5
33B
330
209
100
AcDbEntity
  8
0
  6
Continuous
 62
     7
100
AcDbLine
 10
465.8095265687
 20
256.2379275195
 30
0.0
 11
484.8095265687
 21
256.2379275195
 31
0.0
  0
LINE
  5
33C
330
209
100
AcDbEntity
  8
02___PRT_ALL_AXES
  6
Continuous
 62
     7
100
AcDbLine
 10
454.5595265687
 20
259.4879275195
 30
0.0
 11
442.0595265687
 21
259.4879275195
 31
0.0
  0
LINE
  5
33D
330
209
100
AcDbEntity
  8
02___PRT_ALL_AXES
  6
Continuous
 62
     7
100
AcDbLine
 10
429.5595265687
 20
259.4879275195
 30
0.0
 11
417.0595265687
 21
259.4879275195
 31
0.0
  0
LINE
  5
33E
330
209
100
AcDbEntity
  8
02___PRT_ALL_AXES
  6
Continuous
 62
     7
100
AcDbLine
 10
404.5595265687
 20
259.4879275195
 30
0.0
 11
392.0595265687
 21
259.4879275195
 31
0.0
  0
LINE
  5
33F
330
209
100
AcDbEntity
  8
02___PRT_ALL_AXES
  6
Continuous
 62
     7
100
AcDbLine
 10
379.5595265687
 20
259.4879275195
 30
0.0
 11
367.0595265687
 21
259.4879275195
 31
0.0
  0
LINE
  5
340
330
209
100
AcDbEntity
  8
02___PRT_ALL_AXES
  6
Continuous
 62
     7
100
AcDbLine
 10
354.5595265687
 20
259.4879275195
 30
0.0
 11
342.0595265687
 21
259.4879275195
 31
0.0
  0
LINE
  5
341
330
209
100
AcDbEntity
  8
02___PRT_ALL_AXES
  6
Continuous
 62
     7
100
AcDbLine
 10
329.5595265687
 20
259.4879275195
 30
0.0
 11
317.0595265687
 21
259.4879275195
 31
0.0
  0
LINE
  5
342
330
209
100
AcDbEntity
  8
02___PRT_ALL_AXES
  6
Continuous
 62
     7
100
AcDbLine
 10
304.5595265687
 20
259.4879275195
 30
0.0
 11
292.0595265687
 21
259.4879275195
 31
0.0
  0
LINE
  5
343
330
209
100
AcDbEntity
  8
02___PRT_ALL_AXES
  6
Continuous
 62
     7
100
AcDbLine
 10
279.5595265687
 20
259.4879275195
 30
0.0
 11
267.0595265687
 21
259.4879275195
 31
0.0
  0
LINE
  5
344
330
209
100
AcDbEntity
  8
02___PRT_ALL_AXES
  6
Continuous
 62
     7
100
AcDbLine
 10
254.5595265687
 20
259.4879275195
 30
0.0
 11
242.0595265687
 21
259.4879275195
 31
0.0
  0
LINE
  5
345
330
209
100
AcDbEntity
  8
02___PRT_ALL_AXES
  6
Continuous
 62
     7
100
AcDbLine
 10
229.5595265687
 20
259.4879275195
 30
0.0
 11
217.0595265687
 21
259.4879275195
 31
0.0
  0
LINE
  5
346
330
209
100
AcDbEntity
  8
02___PRT_ALL_AXES
  6
Continuous
 62
     7
100
AcDbLine
 10
204.5595265687
 20
259.4879275195
 30
0.0
 11
192.0595265687
 21
259.4879275195
 31
0.0
  0
LINE
  5
347
330
209
100
AcDbEntity
  8
02___PRT_ALL_AXES
  6
Continuous
 62
     7
100
AcDbLine
 10
179.5595265687
 20
259.4879275195
 30
0.0
 11
167.0595265687
 21
259.4879275195
 31
0.0
  0
LINE
  5
348
330
209
100
AcDbEntity
  8
02___PRT_ALL_AXES
  6
Continuous
 62
     7
100
AcDbLine
 10
154.5595265687
 20
259.4879275195
 30
0.0
 11
142.0595265687
 21
259.4879275195
 31
0.0
  0
LINE
  5
349
330
209
100
AcDbEntity
  8
02___PRT_ALL_AXES
  6
Continuous
 62
     7
100
AcDbLine
 10
129.5595265687
 20
259.4879275195
 30
0.0
 11
117.0595265687
 21
259.4879275195
 31
0.0
  0
LINE
  5
34A
330
209
100
AcDbEntity
  8
02___PRT_ALL_AXES
  6
Continuous
 62
     7
100
AcDbLine
 10
104.5595265687
 20
259.4879275195
 30
0.0
 11
92.05952656870001
 21
259.4879275195
 31
0.0
  0
LINE
  5
34B
330
209
100
AcDbEntity
  8
02___PRT_ALL_AXES
  6
Continuous
 62
     7
100
AcDbLine
 10
54.5595265687
 20
259.4879275195
 30
0.0
 11
42.0595265687
 21
259.4879275195
 31
0.0
  0
LINE
  5
34C
330
209
100
AcDbEntity
  8
02___PRT_ALL_AXES
  6
Continuous
 62
     7
100
AcDbLine
 10
29.5595265687
 20
259.4879275195
 30
0.0
 11
17.0595265687
 21
259.4879275195
 31
0.0
  0
LINE
  5
34D
330
209
100
AcDbEntity
  8
02___PRT_ALL_AXES
  6
Continuous
 62
     7
100
AcDbLine
 10
4.559526568699999
 20
259.4879275195
 30
0.0
 11
-7.9404734313
 21
259.4879275195
 31
0.0
  0
LINE
  5
34E
330
209
100
AcDbEntity
  8
02___PRT_ALL_AXES
  6
Continuous
 62
     7
100
AcDbLine
 10
-20.4404734313
 20
259.4879275195
 30
0.0
 11
-32.9404734313
 21
259.4879275195
 31
0.0
  0
LINE
  5
34F
330
209
100
AcDbEntity
  8
02___PRT_ALL_AXES
  6
Continuous
 62
     7
100
AcDbLine
 10
67.0595265687
 20
259.4879275195
 30
0.0
 11
79.5595265687
 21
259.4879275195
 31
0.0
  0
LINE
  5
350
330
209
100
AcDbEntity
  8
02___PRT_ALL_AXES
  6
Continuous
 62
     7
100
AcDbLine
 10
204.5595265687
 20
294.9879275195
 30
0.0
 11
204.5595265687
 21
284.4879275195
 31
0.0
  0
LINE
  5
351
330
209
100
AcDbEntity
  8
02___PRT_ALL_AXES
  6
Continuous
 62
     7
100
AcDbLine
 10
204.5595265687
 20
269.9879275195
 30
0.0
 11
204.5595265687
 21
259.4879275195
 31
0.0
  0
LINE
  5
352
330
209
100
AcDbEntity
  8
0
  6
Continuous
 62
     7
100
AcDbLine
 10
482.5595265687
 20
261.3379275195
 30
0.0
 11
479.0595265687001
 21
261.3379275195
 31
0.0
  0
LINE
  5
353
330
209
100
AcDbEntity
  8
0
  6
Continuous
 62
     7
100
AcDbLine
 10
-57.4404734313
 20
261.3379275195
 30
0.0
 11
-60.9404734313
 21
261.3379275195
 31
0.0
  0
LINE
  5
354
330
209
100
AcDbEntity
  8
0
  6
Continuous
 62
     7
100
AcDbLine
 10
462.4824369269
 20
263.2379275195
 30
0.0
 11
459.1366162104
 21
263.2379275195
 31
0.0
  0
LINE
  5
355
330
209
100
AcDbEntity
  8
0
  6
Continuous
 62
     7
100
AcDbLine
 10
454.5595265687
 20
263.2379275195
 30
0.0
 11
442.0595265687
 21
263.2379275195
 31
0.0
  0
LINE
  5
356
330
209
100
AcDbEntity
  8
0
  6
Continuous
 62
     7
100
AcDbLine
 10
437.4824369269
 20
263.2379275195
 30
0.0
 11
434.1366162104
 21
263.2379275195
 31
0.0
  0
LINE
  5
357
330
209
100
AcDbEntity
  8
0
  6
Continuous
 62
     7
100
AcDbLine
 10
429.5595265687
 20
263.2379275195
 30
0.0
 11
417.0595265687
 21
263.2379275195
 31
0.0
  0
LINE
  5
358
330
209
100
AcDbEntity
  8
0
  6
Continuous
 62
     7
100
AcDbLine
 10
412.4824369269
 20
263.2379275195
 30
0.0
 11
409.1366162104
 21
263.2379275195
 31
0.0
  0
LINE
  5
359
330
209
100
AcDbEntity
  8
0
  6
Continuous
 62
     7
100
AcDbLine
 10
404.5595265687
 20
263.2379275195
 30
0.0
 11
392.0595265687
 21
263.2379275195
 31
0.0
  0
LINE
  5
35A
330
209
100
AcDbEntity
  8
0
  6
Continuous
 62
     7
100
AcDbLine
 10
387.4824369269001
 20
263.2379275195
 30
0.0
 11
384.1366162104
 21
263.2379275195
 31
0.0
  0
LINE
  5
35B
330
209
100
AcDbEntity
  8
0
  6
Continuous
 62
     7
100
AcDbLine
 10
379.5595265687
 20
263.2379275195
 30
0.0
 11
367.0595265687
 21
263.2379275195
 31
0.0
  0
LINE
  5
35C
330
209
100
AcDbEntity
  8
0
  6
Continuous
 62
     7
100
AcDbLine
 10
362.4824369269
 20
263.2379275195
 30
0.0
 11
359.1366162104
 21
263.2379275195
 31
0.0
  0
LINE
  5
35D
330
209
100
AcDbEntity
  8
0
  6
Continuous
 62
     7
100
AcDbLine
 10
354.5595265687
 20
263.2379275195
 30
0.0
 11
342.0595265687
 21
263.2379275195
 31
0.0
  0
LINE
  5
35E
330
209
100
AcDbEntity
  8
0
  6
Continuous
 62
     7
100
AcDbLine
 10
337.4824369269
 20
263.2379275195
 30
0.0
 11
334.1366162104
 21
263.2379275195
 31
0.0
  0
LINE
  5
35F
330
209
100
AcDbEntity
  8
0
  6
Continuous
 62
     7
100
AcDbLine
 10
329.5595265687
 20
263.2379275195
 30
0.0
 11
317.0595265687
 21
263.2379275195
 31
0.0
  0
LINE
  5
360
330
209
100
AcDbEntity
  8
0
  6
Continuous
 62
     7
100
AcDbLine
 10
312.4824369269
 20
263.2379275195
 30
0.0
 11
309.1366162104
 21
263.2379275195
 31
0.0
  0
LINE
  5
361
330
209
100
AcDbEntity
  8
0
  6
Continuous
 62
     7
100
AcDbLine
 10
304.5595265687
 20
263.2379275195
 30
0.0
 11
292.0595265687
 21
263.2379275195
 31
0.0
  0
LINE
  5
362
330
209
100
AcDbEntity
  8
0
  6
Continuous
 62
     7
100
AcDbLine
 10
287.4824369269
 20
263.2379275195
 30
0.0
 11
284.1366162104
 21
263.2379275195
 31
0.0
  0
LINE
  5
363
330
209
100
AcDbEntity
  8
0
  6
Continuous
 62
     7
100
AcDbLine
 10
279.5595265687
 20
263.2379275195
 30
0.0
 11
267.0595265687
 21
263.2379275195
 31
0.0
  0
LINE
  5
364
330
209
100
AcDbEntity
  8
0
  6
Continuous
 62
     7
100
AcDbLine
 10
262.4824369269
 20
263.2379275195
 30
0.0
 11
259.1366162104
 21
263.2379275195
 31
0.0
  0
LINE
  5
365
330
209
100
AcDbEntity
  8
0
  6
Continuous
 62
     7
100
AcDbLine
 10
254.5595265687
 20
263.2379275195
 30
0.0
 11
242.0595265687
 21
263.2379275195
 31
0.0
  0
LINE
  5
366
330
209
100
AcDbEntity
  8
0
  6
Continuous
 62
     7
100
AcDbLine
 10
237.4824369269
 20
263.2379275195
 30
0.0
 11
234.1366162104
 21
263.2379275195
 31
0.0
  0
LINE
  5
367
330
209
100
AcDbEntity
  8
0
  6
Continuous
 62
     7
100
AcDbLine
 10
229.5595265687
 20
263.2379275195
 30
0.0
 11
217.0595265687
 21
263.2379275195
 31
0.0
  0
LINE
  5
368
330
209
100
AcDbEntity
  8
0
  6
Continuous
 62
     7
100
AcDbLine
 10
212.4824369269
 20
263.2379275195
 30
0.0
 11
209.1366162104
 21
263.2379275195
 31
0.0
  0
LINE
  5
369
330
209
100
AcDbEntity
  8
0
  6
Continuous
 62
     7
100
AcDbLine
 10
204.5595265687
 20
263.2379275195
 30
0.0
 11
192.0595265687
 21
263.2379275195
 31
0.0
  0
LINE
  5
36A
330
209
100
AcDbEntity
  8
0
  6
Continuous
 62
     7
100
AcDbLine
 10
187.4824369269
 20
263.2379275195
 30
0.0
 11
184.1366162104
 21
263.2379275195
 31
0.0
  0
LINE
  5
36B
330
209
100
AcDbEntity
  8
0
  6
Continuous
 62
     7
100
AcDbLine
 10
179.5595265687
 20
263.2379275195
 30
0.0
 11
167.0595265687
 21
263.2379275195
 31
0.0
  0
LINE
  5
36C
330
209
100
AcDbEntity
  8
0
  6
Continuous
 62
     7
100
AcDbLine
 10
162.4824369269
 20
263.2379275195
 30
0.0
 11
159.1366162104
 21
263.2379275195
 31
0.0
  0
LINE
  5
36D
330
209
100
AcDbEntity
  8
0
  6
Continuous
 62
     7
100
AcDbLine
 10
154.5595265687
 20
263.2379275195
 30
0.0
 11
142.0595265687
 21
263.2379275195
 31
0.0
  0
LINE
  5
36E
330
209
100
AcDbEntity
  8
0
  6
Continuous
 62
     7
100
AcDbLine
 10
137.4824369269
 20
263.2379275195
 30
0.0
 11
134.1366162104
 21
263.2379275195
 31
0.0
  0
LINE
  5
36F
330
209
100
AcDbEntity
  8
0
  6
Continuous
 62
     7
100
AcDbLine
 10
129.5595265687
 20
263.2379275195
 30
0.0
 11
117.0595265687
 21
263.2379275195
 31
0.0
  0
LINE
  5
370
330
209
100
AcDbEntity
  8
0
  6
Continuous
 62
     7
100
AcDbLine
 10
112.4824369269
 20
263.2379275195
 30
0.0
 11
109.1366162104
 21
263.2379275195
 31
0.0
  0
LINE
  5
371
330
209
100
AcDbEntity
  8
0
  6
Continuous
 62
     7
100
AcDbLine
 10
104.5595265687
 20
263.2379275195
 30
0.0
 11
92.05952656870001
 21
263.2379275195
 31
0.0
  0
LINE
  5
372
330
209
100
AcDbEntity
  8
0
  6
Continuous
 62
     7
100
AcDbLine
 10
87.48243692690001
 20
263.2379275195
 30
0.0
 11
84.13661621039999
 21
263.2379275195
 31
0.0
  0
LINE
  5
373
330
209
100
AcDbEntity
  8
0
  6
Continuous
 62
     7
100
AcDbLine
 10
79.5595265687
 20
263.2379275195
 30
0.0
 11
67.0595265687
 21
263.2379275195
 31
0.0
  0
LINE
  5
374
330
209
100
AcDbEntity
  8
0
  6
Continuous
 62
     7
100
AcDbLine
 10
62.4824369269
 20
263.2379275195
 30
0.0
 11
59.1366162104
 21
263.2379275195
 31
0.0
  0
LINE
  5
375
330
209
100
AcDbEntity
  8
0
  6
Continuous
 62
     7
100
AcDbLine
 10
54.5595265687
 20
263.2379275195
 30
0.0
 11
42.0595265687
 21
263.2379275195
 31
0.0
  0
LINE
  5
376
330
209
100
AcDbEntity
  8
0
  6
Continuous
 62
     7
100
AcDbLine
 10
37.4824369269
 20
263.2379275195
 30
0.0
 11
34.1366162104
 21
263.2379275195
 31
0.0
  0
LINE
  5
377
330
209
100
AcDbEntity
  8
0
  6
Continuous
 62
     7
100
AcDbLine
 10
29.5595265687
 20
263.2379275195
 30
0.0
 11
17.0595265687
 21
263.2379275195
 31
0.0
  0
LINE
  5
378
330
209
100
AcDbEntity
  8
0
  6
Continuous
 62
     7
100
AcDbLine
 10
12.4824369269
 20
263.2379275195
 30
0.0
 11
9.136616210399999
 21
263.2379275195
 31
0.0
  0
LINE
  5
379
330
209
100
AcDbEntity
  8
0
  6
Continuous
 62
     7
100
AcDbLine
 10
4.559526568699999
 20
263.2379275195
 30
0.0
 11
-7.9404734313
 21
263.2379275195
 31
0.0
  0
LINE
  5
37A
330
209
100
AcDbEntity
  8
0
  6
Continuous
 62
     7
100
AcDbLine
 10
-12.5175630731
 20
263.2379275195
 30
0.0
 11
-15.8633837896
 21
263.2379275195
 31
0.0
  0
LINE
  5
37B
330
209
100
AcDbEntity
  8
0
  6
Continuous
 62
     7
100
AcDbLine
 10
-20.4404734313
 20
263.2379275195
 30
0.0
 11
-32.9404734313
 21
263.2379275195
 31
0.0
  0
LINE
  5
37C
330
209
100
AcDbEntity
  8
0
  6
Continuous
 62
     7
100
AcDbLine
 10
-37.5175630731
 20
263.2379275195
 30
0.0
 11
-40.86338378959999
 21
263.2379275195
 31
0.0
  0
LINE
  5
37D
330
209
100
AcDbEntity
  8
0
  6
Continuous
 62
     7
100
AcDbLine
 10
-60.9404734313
 20
268.1379275195
 30
0.0
 11
-57.4404734313
 21
268.1379275195
 31
0.0
  0
LINE
  5
37E
330
209
100
AcDbEntity
  8
0
  6
Continuous
 62
     7
100
AcDbLine
 10
479.0595265687001
 20
268.1379275195
 30
0.0
 11
482.5595265687
 21
268.1379275195
 31
0.0
  0
LINE
  5
37F
330
209
100
AcDbEntity
  8
02___PRT_ALL_AXES
  6
Continuous
 62
     7
100
AcDbLine
 10
354.5595265687
 20
269.9879275195
 30
0.0
 11
342.0595265687
 21
269.9879275195
 31
0.0
  0
LINE
  5
380
330
209
100
AcDbEntity
  8
02___PRT_ALL_AXES
  6
Continuous
 62
     7
100
AcDbLine
 10
-32.9404734313
 20
269.9879275195
 30
0.0
 11
-20.4404734313
 21
269.9879275195
 31
0.0
  0
LINE
  5
381
330
209
100
AcDbEntity
  8
02___PRT_ALL_AXES
  6
Continuous
 62
     7
100
AcDbLine
 10
-7.9404734313
 20
269.9879275195
 30
0.0
 11
4.559526568699999
 21
269.9879275195
 31
0.0
  0
LINE
  5
382
330
209
100
AcDbEntity
  8
02___PRT_ALL_AXES
  6
Continuous
 62
     7
100
AcDbLine
 10
17.0595265687
 20
269.9879275195
 30
0.0
 11
29.5595265687
 21
269.9879275195
 31
0.0
  0
LINE
  5
383
330
209
100
AcDbEntity
  8
02___PRT_ALL_AXES
  6
Continuous
 62
     7
100
AcDbLine
 10
42.0595265687
 20
269.9879275195
 30
0.0
 11
54.5595265687
 21
269.9879275195
 31
0.0
  0
LINE
  5
384
330
209
100
AcDbEntity
  8
02___PRT_ALL_AXES
  6
Continuous
 62
     7
100
AcDbLine
 10
67.0595265687
 20
269.9879275195
 30
0.0
 11
79.5595265687
 21
269.9879275195
 31
0.0
  0
LINE
  5
385
330
209
100
AcDbEntity
  8
02___PRT_ALL_AXES
  6
Continuous
 62
     7
100
AcDbLine
 10
92.05952656870001
 20
269.9879275195
 30
0.0
 11
104.5595265687
 21
269.9879275195
 31
0.0
  0
LINE
  5
386
330
209
100
AcDbEntity
  8
02___PRT_ALL_AXES
  6
Continuous
 62
     7
100
AcDbLine
 10
117.0595265687
 20
269.9879275195
 30
0.0
 11
129.5595265687
 21
269.9879275195
 31
0.0
  0
LINE
  5
387
330
209
100
AcDbEntity
  8
02___PRT_ALL_AXES
  6
Continuous
 62
     7
100
AcDbLine
 10
142.0595265687
 20
269.9879275195
 30
0.0
 11
154.5595265687
 21
269.9879275195
 31
0.0
  0
LINE
  5
388
330
209
100
AcDbEntity
  8
02___PRT_ALL_AXES
  6
Continuous
 62
     7
100
AcDbLine
 10
167.0595265687
 20
269.9879275195
 30
0.0
 11
179.5595265687
 21
269.9879275195
 31
0.0
  0
LINE
  5
389
330
209
100
AcDbEntity
  8
02___PRT_ALL_AXES
  6
Continuous
 62
     7
100
AcDbLine
 10
192.0595265687
 20
269.9879275195
 30
0.0
 11
204.5595265687
 21
269.9879275195
 31
0.0
  0
LINE
  5
38A
330
209
100
AcDbEntity
  8
02___PRT_ALL_AXES
  6
Continuous
 62
     7
100
AcDbLine
 10
217.0595265687
 20
269.9879275195
 30
0.0
 11
229.5595265687
 21
269.9879275195
 31
0.0
  0
LINE
  5
38B
330
209
100
AcDbEntity
  8
02___PRT_ALL_AXES
  6
Continuous
 62
     7
100
AcDbLine
 10
242.0595265687
 20
269.9879275195
 30
0.0
 11
254.5595265687
 21
269.9879275195
 31
0.0
  0
LINE
  5
38C
330
209
100
AcDbEntity
  8
02___PRT_ALL_AXES
  6
Continuous
 62
     7
100
AcDbLine
 10
267.0595265687
 20
269.9879275195
 30
0.0
 11
279.5595265687
 21
269.9879275195
 31
0.0
  0
LINE
  5
38D
330
209
100
AcDbEntity
  8
02___PRT_ALL_AXES
  6
Continuous
 62
     7
100
AcDbLine
 10
292.0595265687
 20
269.9879275195
 30
0.0
 11
304.5595265687
 21
269.9879275195
 31
0.0
  0
LINE
  5
38E
330
209
100
AcDbEntity
  8
02___PRT_ALL_AXES
  6
Continuous
 62
     7
100
AcDbLine
 10
317.0595265687
 20
269.9879275195
 30
0.0
 11
329.5595265687
 21
269.9879275195
 31
0.0
  0
LINE
  5
38F
330
209
100
AcDbEntity
  8
02___PRT_ALL_AXES
  6
Continuous
 62
     7
100
AcDbLine
 10
367.0595265687
 20
269.9879275195
 30
0.0
 11
379.5595265687
 21
269.9879275195
 31
0.0
  0
LINE
  5
390
330
209
100
AcDbEntity
  8
02___PRT_ALL_AXES
  6
Continuous
 62
     7
100
AcDbLine
 10
392.0595265687
 20
269.9879275195
 30
0.0
 11
404.5595265687
 21
269.9879275195
 31
0.0
  0
LINE
  5
391
330
209
100
AcDbEntity
  8
02___PRT_ALL_AXES
  6
Continuous
 62
     7
100
AcDbLine
 10
417.0595265687
 20
269.9879275195
 30
0.0
 11
429.5595265687
 21
269.9879275195
 31
0.0
  0
LINE
  5
392
330
209
100
AcDbEntity
  8
02___PRT_ALL_AXES
  6
Continuous
 62
     7
100
AcDbLine
 10
442.0595265687
 20
269.9879275195
 30
0.0
 11
454.5595265687
 21
269.9879275195
 31
0.0
  0
LINE
  5
393
330
209
100
AcDbEntity
  8
02___PRT_ALL_AXES
  6
Continuous
 62
     7
100
AcDbLine
 10
217.0595265687
 20
259.4879275195
 30
0.0
 11
217.0595265687
 21
269.9879275195
 31
0.0
  0
LINE
  5
394
330
209
100
AcDbEntity
  8
02___PRT_ALL_AXES
  6
Continuous
 62
     7
100
AcDbLine
 10
217.0595265687
 20
284.4879275195
 30
0.0
 11
217.0595265687
 21
294.9879275195
 31
0.0
  0
LINE
  5
395
330
209
100
AcDbEntity
  8
02___PRT_ALL_AXES
  6
Continuous
 62
     7
100
AcDbLine
 10
229.5595265687
 20
294.9879275195
 30
0.0
 11
229.5595265687
 21
284.4879275195
 31
0.0
  0
LINE
  5
396
330
209
100
AcDbEntity
  8
02___PRT_ALL_AXES
  6
Continuous
 62
     7
100
AcDbLine
 10
229.5595265687
 20
269.9879275195
 30
0.0
 11
229.5595265687
 21
259.4879275195
 31
0.0
  0
LINE
  5
397
330
209
100
AcDbEntity
  8
02___PRT_ALL_AXES
  6
Continuous
 62
     7
100
AcDbLine
 10
454.5595265687
 20
284.4879275195
 30
0.0
 11
442.0595265687
 21
284.4879275195
 31
0.0
  0
LINE
  5
398
330
209
100
AcDbEntity
  8
02___PRT_ALL_AXES
  6
Continuous
 62
     7
100
AcDbLine
 10
429.5595265687
 20
284.4879275195
 30
0.0
 11
417.0595265687
 21
284.4879275195
 31
0.0
  0
LINE
  5
399
330
209
100
AcDbEntity
  8
02___PRT_ALL_AXES
  6
Continuous
 62
     7
100
AcDbLine
 10
404.5595265687
 20
284.4879275195
 30
0.0
 11
392.0595265687
 21
284.4879275195
 31
0.0
  0
LINE
  5
39A
330
209
100
AcDbEntity
  8
02___PRT_ALL_AXES
  6
Continuous
 62
     7
100
AcDbLine
 10
379.5595265687
 20
284.4879275195
 30
0.0
 11
367.0595265687
 21
284.4879275195
 31
0.0
  0
LINE
  5
39B
330
209
100
AcDbEntity
  8
02___PRT_ALL_AXES
  6
Continuous
 62
     7
100
AcDbLine
 10
354.5595265687
 20
284.4879275195
 30
0.0
 11
342.0595265687
 21
284.4879275195
 31
0.0
  0
LINE
  5
39C
330
209
100
AcDbEntity
  8
02___PRT_ALL_AXES
  6
Continuous
 62
     7
100
AcDbLine
 10
329.5595265687
 20
284.4879275195
 30
0.0
 11
317.0595265687
 21
284.4879275195
 31
0.0
  0
LINE
  5
39D
330
209
100
AcDbEntity
  8
02___PRT_ALL_AXES
  6
Continuous
 62
     7
100
AcDbLine
 10
304.5595265687
 20
284.4879275195
 30
0.0
 11
292.0595265687
 21
284.4879275195
 31
0.0
  0
LINE
  5
39E
330
209
100
AcDbEntity
  8
02___PRT_ALL_AXES
  6
Continuous
 62
     7
100
AcDbLine
 10
279.5595265687
 20
284.4879275195
 30
0.0
 11
267.0595265687
 21
284.4879275195
 31
0.0
  0
LINE
  5
39F
330
209
100
AcDbEntity
  8
02___PRT_ALL_AXES
  6
Continuous
 62
     7
100
AcDbLine
 10
254.5595265687
 20
284.4879275195
 30
0.0
 11
242.0595265687
 21
284.4879275195
 31
0.0
  0
LINE
  5
3A0
330
209
100
AcDbEntity
  8
02___PRT_ALL_AXES
  6
Continuous
 62
     7
100
AcDbLine
 10
229.5595265687
 20
284.4879275195
 30
0.0
 11
217.0595265687
 21
284.4879275195
 31
0.0
  0
LINE
  5
3A1
330
209
100
AcDbEntity
  8
02___PRT_ALL_AXES
  6
Continuous
 62
     7
100
AcDbLine
 10
204.5595265687
 20
284.4879275195
 30
0.0
 11
192.0595265687
 21
284.4879275195
 31
0.0
  0
LINE
  5
3A2
330
209
100
AcDbEntity
  8
02___PRT_ALL_AXES
  6
Continuous
 62
     7
100
AcDbLine
 10
179.5595265687
 20
284.4879275195
 30
0.0
 11
167.0595265687
 21
284.4879275195
 31
0.0
  0
LINE
  5
3A3
330
209
100
AcDbEntity
  8
02___PRT_ALL_AXES
  6
Continuous
 62
     7
100
AcDbLine
 10
154.5595265687
 20
284.4879275195
 30
0.0
 11
142.0595265687
 21
284.4879275195
 31
0.0
  0
LINE
  5
3A4
330
209
100
AcDbEntity
  8
02___PRT_ALL_AXES
  6
Continuous
 62
     7
100
AcDbLine
 10
129.5595265687
 20
284.4879275195
 30
0.0
 11
117.0595265687
 21
284.4879275195
 31
0.0
  0
LINE
  5
3A5
330
209
100
AcDbEntity
  8
02___PRT_ALL_AXES
  6
Continuous
 62
     7
100
AcDbLine
 10
104.5595265687
 20
284.4879275195
 30
0.0
 11
92.05952656870001
 21
284.4879275195
 31
0.0
  0
LINE
  5
3A6
330
209
100
AcDbEntity
  8
02___PRT_ALL_AXES
  6
Continuous
 62
     7
100
AcDbLine
 10
54.5595265687
 20
284.4879275195
 30
0.0
 11
42.0595265687
 21
284.4879275195
 31
0.0
  0
LINE
  5
3A7
330
209
100
AcDbEntity
  8
02___PRT_ALL_AXES
  6
Continuous
 62
     7
100
AcDbLine
 10
29.5595265687
 20
284.4879275195
 30
0.0
 11
17.0595265687
 21
284.4879275195
 31
0.0
  0
LINE
  5
3A8
330
209
100
AcDbEntity
  8
02___PRT_ALL_AXES
  6
Continuous
 62
     7
100
AcDbLine
 10
4.559526568699999
 20
284.4879275195
 30
0.0
 11
-7.9404734313
 21
284.4879275195
 31
0.0
  0
LINE
  5
3A9
330
209
100
AcDbEntity
  8
02___PRT_ALL_AXES
  6
Continuous
 62
     7
100
AcDbLine
 10
-20.4404734313
 20
284.4879275195
 30
0.0
 11
-32.9404734313
 21
284.4879275195
 31
0.0
  0
LINE
  5
3AA
330
209
100
AcDbEntity
  8
02___PRT_ALL_AXES
  6
Continuous
 62
     7
100
AcDbLine
 10
67.0595265687
 20
284.4879275195
 30
0.0
 11
79.5595265687
 21
284.4879275195
 31
0.0
  0
LINE
  5
3AB
330
209
100
AcDbEntity
  8
0
  6
Continuous
 62
     7
100
AcDbLine
 10
482.5595265687
 20
286.3379275195
 30
0.0
 11
479.0595265687001
 21
286.3379275195
 31
0.0
  0
LINE
  5
3AC
330
209
100
AcDbEntity
  8
0
  6
Continuous
 62
     7
100
AcDbLine
 10
-57.4404734313
 20
286.3379275195
 30
0.0
 11
-60.9404734313
 21
286.3379275195
 31
0.0
  0
LINE
  5
3AD
330
209
100
AcDbEntity
  8
0
  6
Continuous
 62
     7
100
AcDbLine
 10
462.4824369269
 20
291.2379275195
 30
0.0
 11
459.1366162104
 21
291.2379275195
 31
0.0
  0
LINE
  5
3AE
330
209
100
AcDbEntity
  8
0
  6
Continuous
 62
     7
100
AcDbLine
 10
454.5595265687
 20
291.2379275195
 30
0.0
 11
442.0595265687
 21
291.2379275195
 31
0.0
  0
LINE
  5
3AF
330
209
100
AcDbEntity
  8
0
  6
Continuous
 62
     7
100
AcDbLine
 10
437.4824369269
 20
291.2379275195
 30
0.0
 11
434.1366162104
 21
291.2379275195
 31
0.0
  0
LINE
  5
3B0
330
209
100
AcDbEntity
  8
0
  6
Continuous
 62
     7
100
AcDbLine
 10
429.5595265687
 20
291.2379275195
 30
0.0
 11
417.0595265687
 21
291.2379275195
 31
0.0
  0
LINE
  5
3B1
330
209
100
AcDbEntity
  8
0
  6
Continuous
 62
     7
100
AcDbLine
 10
412.4824369269
 20
291.2379275195
 30
0.0
 11
409.1366162104
 21
291.2379275195
 31
0.0
  0
LINE
  5
3B2
330
209
100
AcDbEntity
  8
0
  6
Continuous
 62
     7
100
AcDbLine
 10
404.5595265687
 20
291.2379275195
 30
0.0
 11
392.0595265687
 21
291.2379275195
 31
0.0
  0
LINE
  5
3B3
330
209
100
AcDbEntity
  8
0
  6
Continuous
 62
     7
100
AcDbLine
 10
387.4824369269001
 20
291.2379275195
 30
0.0
 11
384.1366162104
 21
291.2379275195
 31
0.0
  0
LINE
  5
3B4
330
209
100
AcDbEntity
  8
0
  6
Continuous
 62
     7
100
AcDbLine
 10
379.5595265687
 20
291.2379275195
 30
0.0
 11
367.0595265687
 21
291.2379275195
 31
0.0
  0
LINE
  5
3B5
330
209
100
AcDbEntity
  8
0
  6
Continuous
 62
     7
100
AcDbLine
 10
362.4824369269
 20
291.2379275195
 30
0.0
 11
359.1366162104
 21
291.2379275195
 31
0.0
  0
LINE
  5
3B6
330
209
100
AcDbEntity
  8
0
  6
Continuous
 62
     7
100
AcDbLine
 10
354.5595265687
 20
291.2379275195
 30
0.0
 11
342.0595265687
 21
291.2379275195
 31
0.0
  0
LINE
  5
3B7
330
209
100
AcDbEntity
  8
0
  6
Continuous
 62
     7
100
AcDbLine
 10
337.4824369269
 20
291.2379275195
 30
0.0
 11
334.1366162104
 21
291.2379275195
 31
0.0
  0
LINE
  5
3B8
330
209
100
AcDbEntity
  8
0
  6
Continuous
 62
     7
100
AcDbLine
 10
329.5595265687
 20
291.2379275195
 30
0.0
 11
317.0595265687
 21
291.2379275195
 31
0.0
  0
LINE
  5
3B9
330
209
100
AcDbEntity
  8
0
  6
Continuous
 62
     7
100
AcDbLine
 10
312.4824369269
 20
291.2379275195
 30
0.0
 11
309.1366162104
 21
291.2379275195
 31
0.0
  0
LINE
  5
3BA
330
209
100
AcDbEntity
  8
0
  6
Continuous
 62
     7
100
AcDbLine
 10
304.5595265687
 20
291.2379275195
 30
0.0
 11
292.0595265687
 21
291.2379275195
 31
0.0
  0
LINE
  5
3BB
330
209
100
AcDbEntity
  8
0
  6
Continuous
 62
     7
100
AcDbLine
 10
287.4824369269
 20
291.2379275195
 30
0.0
 11
284.1366162104
 21
291.2379275195
 31
0.0
  0
LINE
  5
3BC
330
209
100
AcDbEntity
  8
0
  6
Continuous
 62
     7
100
AcDbLine
 10
279.5595265687
 20
291.2379275195
 30
0.0
 11
267.0595265687
 21
291.2379275195
 31
0.0
  0
LINE
  5
3BD
330
209
100
AcDbEntity
  8
0
  6
Continuous
 62
     7
100
AcDbLine
 10
262.4824369269
 20
291.2379275195
 30
0.0
 11
259.1366162104
 21
291.2379275195
 31
0.0
  0
LINE
  5
3BE
330
209
100
AcDbEntity
  8
0
  6
Continuous
 62
     7
100
AcDbLine
 10
254.5595265687
 20
291.2379275195
 30
0.0
 11
242.0595265687
 21
291.2379275195
 31
0.0
  0
LINE
  5
3BF
330
209
100
AcDbEntity
  8
0
  6
Continuous
 62
     7
100
AcDbLine
 10
237.4824369269
 20
291.2379275195
 30
0.0
 11
234.1366162104
 21
291.2379275195
 31
0.0
  0
LINE
  5
3C0
330
209
100
AcDbEntity
  8
0
  6
Continuous
 62
     7
100
AcDbLine
 10
229.5595265687
 20
291.2379275195
 30
0.0
 11
217.0595265687
 21
291.2379275195
 31
0.0
  0
LINE
  5
3C1
330
209
100
AcDbEntity
  8
0
  6
Continuous
 62
     7
100
AcDbLine
 10
212.4824369269
 20
291.2379275195
 30
0.0
 11
209.1366162104
 21
291.2379275195
 31
0.0
  0
LINE
  5
3C2
330
209
100
AcDbEntity
  8
0
  6
Continuous
 62
     7
100
AcDbLine
 10
204.5595265687
 20
291.2379275195
 30
0.0
 11
192.0595265687
 21
291.2379275195
 31
0.0
  0
LINE
  5
3C3
330
209
100
AcDbEntity
  8
0
  6
Continuous
 62
     7
100
AcDbLine
 10
187.4824369269
 20
291.2379275195
 30
0.0
 11
184.1366162104
 21
291.2379275195
 31
0.0
  0
LINE
  5
3C4
330
209
100
AcDbEntity
  8
0
  6
Continuous
 62
     7
100
AcDbLine
 10
179.5595265687
 20
291.2379275195
 30
0.0
 11
167.0595265687
 21
291.2379275195
 31
0.0
  0
LINE
  5
3C5
330
209
100
AcDbEntity
  8
0
  6
Continuous
 62
     7
100
AcDbLine
 10
162.4824369269
 20
291.2379275195
 30
0.0
 11
159.1366162104
 21
291.2379275195
 31
0.0
  0
LINE
  5
3C6
330
209
100
AcDbEntity
  8
0
  6
Continuous
 62
     7
100
AcDbLine
 10
154.5595265687
 20
291.2379275195
 30
0.0
 11
142.0595265687
 21
291.2379275195
 31
0.0
  0
LINE
  5
3C7
330
209
100
AcDbEntity
  8
0
  6
Continuous
 62
     7
100
AcDbLine
 10
137.4824369269
 20
291.2379275195
 30
0.0
 11
134.1366162104
 21
291.2379275195
 31
0.0
  0
LINE
  5
3C8
330
209
100
AcDbEntity
  8
0
  6
Continuous
 62
     7
100
AcDbLine
 10
129.5595265687
 20
291.2379275195
 30
0.0
 11
117.0595265687
 21
291.2379275195
 31
0.0
  0
LINE
  5
3C9
330
209
100
AcDbEntity
  8
0
  6
Continuous
 62
     7
100
AcDbLine
 10
112.4824369269
 20
291.2379275195
 30
0.0
 11
109.1366162104
 21
291.2379275195
 31
0.0
  0
LINE
  5
3CA
330
209
100
AcDbEntity
  8
0
  6
Continuous
 62
     7
100
AcDbLine
 10
104.5595265687
 20
291.2379275195
 30
0.0
 11
92.05952656870001
 21
291.2379275195
 31
0.0
  0
LINE
  5
3CB
330
209
100
AcDbEntity
  8
0
  6
Continuous
 62
     7
100
AcDbLine
 10
87.48243692690001
 20
291.2379275195
 30
0.0
 11
84.13661621039999
 21
291.2379275195
 31
0.0
  0
LINE
  5
3CC
330
209
100
AcDbEntity
  8
0
  6
Continuous
 62
     7
100
AcDbLine
 10
79.5595265687
 20
291.2379275195
 30
0.0
 11
67.0595265687
 21
291.2379275195
 31
0.0
  0
LINE
  5
3CD
330
209
100
AcDbEntity
  8
0
  6
Continuous
 62
     7
100
AcDbLine
 10
62.4824369269
 20
291.2379275195
 30
0.0
 11
59.1366162104
 21
291.2379275195
 31
0.0
  0
LINE
  5
3CE
330
209
100
AcDbEntity
  8
0
  6
Continuous
 62
     7
100
AcDbLine
 10
54.5595265687
 20
291.2379275195
 30
0.0
 11
42.0595265687
 21
291.2379275195
 31
0.0
  0
LINE
  5
3CF
330
209
100
AcDbEntity
  8
0
  6
Continuous
 62
     7
100
AcDbLine
 10
37.4824369269
 20
291.2379275195
 30
0.0
 11
34.1366162104
 21
291.2379275195
 31
0.0
  0
LINE
  5
3D0
330
209
100
AcDbEntity
  8
0
  6
Continuous
 62
     7
100
AcDbLine
 10
29.5595265687
 20
291.2379275195
 30
0.0
 11
17.0595265687
 21
291.2379275195
 31
0.0
  0
LINE
  5
3D1
330
209
100
AcDbEntity
  8
0
  6
Continuous
 62
     7
100
AcDbLine
 10
12.4824369269
 20
291.2379275195
 30
0.0
 11
9.136616210399999
 21
291.2379275195
 31
0.0
  0
LINE
  5
3D2
330
209
100
AcDbEntity
  8
0
  6
Continuous
 62
     7
100
AcDbLine
 10
4.559526568699999
 20
291.2379275195
 30
0.0
 11
-7.9404734313
 21
291.2379275195
 31
0.0
  0
LINE
  5
3D3
330
209
100
AcDbEntity
  8
0
  6
Continuous
 62
     7
100
AcDbLine
 10
-12.5175630731
 20
291.2379275195
 30
0.0
 11
-15.8633837896
 21
291.2379275195
 31
0.0
  0
LINE
  5
3D4
330
209
100
AcDbEntity
  8
0
  6
Continuous
 62
     7
100
AcDbLine
 10
-20.4404734313
 20
291.2379275195
 30
0.0
 11
-32.9404734313
 21
291.2379275195
 31
0.0
  0
LINE
  5
3D5
330
209
100
AcDbEntity
  8
0
  6
Continuous
 62
     7
100
AcDbLine
 10
-37.5175630731
 20
291.2379275195
 30
0.0
 11
-40.86338378959999
 21
291.2379275195
 31
0.0
  0
LINE
  5
3D6
330
209
100
AcDbEntity
  8
0
  6
Continuous
 62
     7
100
AcDbLine
 10
-60.9404734313
 20
293.1379275195
 30
0.0
 11
-57.4404734313
 21
293.1379275195
 31
0.0
  0
LINE
  5
3D7
330
209
100
AcDbEntity
  8
0
  6
Continuous
 62
     7
100
AcDbLine
 10
479.0595265687001
 20
293.1379275195
 30
0.0
 11
482.5595265687
 21
293.1379275195
 31
0.0
  0
LINE
  5
3D8
330
209
100
AcDbEntity
  8
02___PRT_ALL_AXES
  6
Continuous
 62
     7
100
AcDbLine
 10
354.5595265687
 20
294.9879275195
 30
0.0
 11
342.0595265687
 21
294.9879275195
 31
0.0
  0
LINE
  5
3D9
330
209
100
AcDbEntity
  8
02___PRT_ALL_AXES
  6
Continuous
 62
     7
100
AcDbLine
 10
-32.9404734313
 20
294.9879275195
 30
0.0
 11
-20.4404734313
 21
294.9879275195
 31
0.0
  0
LINE
  5
3DA
330
209
100
AcDbEntity
  8
02___PRT_ALL_AXES
  6
Continuous
 62
     7
100
AcDbLine
 10
-7.9404734313
 20
294.9879275195
 30
0.0
 11
4.559526568699999
 21
294.9879275195
 31
0.0
  0
LINE
  5
3DB
330
209
100
AcDbEntity
  8
02___PRT_ALL_AXES
  6
Continuous
 62
     7
100
AcDbLine
 10
17.0595265687
 20
294.9879275195
 30
0.0
 11
29.5595265687
 21
294.9879275195
 31
0.0
  0
LINE
  5
3DC
330
209
100
AcDbEntity
  8
02___PRT_ALL_AXES
  6
Continuous
 62
     7
100
AcDbLine
 10
42.0595265687
 20
294.9879275195
 30
0.0
 11
54.5595265687
 21
294.9879275195
 31
0.0
  0
LINE
  5
3DD
330
209
100
AcDbEntity
  8
02___PRT_ALL_AXES
  6
Continuous
 62
     7
100
AcDbLine
 10
67.0595265687
 20
294.9879275195
 30
0.0
 11
79.5595265687
 21
294.9879275195
 31
0.0
  0
LINE
  5
3DE
330
209
100
AcDbEntity
  8
02___PRT_ALL_AXES
  6
Continuous
 62
     7
100
AcDbLine
 10
92.05952656870001
 20
294.9879275195
 30
0.0
 11
104.5595265687
 21
294.9879275195
 31
0.0
  0
LINE
  5
3DF
330
209
100
AcDbEntity
  8
02___PRT_ALL_AXES
  6
Continuous
 62
     7
100
AcDbLine
 10
117.0595265687
 20
294.9879275195
 30
0.0
 11
129.5595265687
 21
294.9879275195
 31
0.0
  0
LINE
  5
3E0
330
209
100
AcDbEntity
  8
02___PRT_ALL_AXES
  6
Continuous
 62
     7
100
AcDbLine
 10
142.0595265687
 20
294.9879275195
 30
0.0
 11
154.5595265687
 21
294.9879275195
 31
0.0
  0
LINE
  5
3E1
330
209
100
AcDbEntity
  8
02___PRT_ALL_AXES
  6
Continuous
 62
     7
100
AcDbLine
 10
167.0595265687
 20
294.9879275195
 30
0.0
 11
179.5595265687
 21
294.9879275195
 31
0.0
  0
LINE
  5
3E2
330
209
100
AcDbEntity
  8
02___PRT_ALL_AXES
  6
Continuous
 62
     7
100
AcDbLine
 10
192.0595265687
 20
294.9879275195
 30
0.0
 11
204.5595265687
 21
294.9879275195
 31
0.0
  0
LINE
  5
3E3
330
209
100
AcDbEntity
  8
02___PRT_ALL_AXES
  6
Continuous
 62
     7
100
AcDbLine
 10
217.0595265687
 20
294.9879275195
 30
0.0
 11
229.5595265687
 21
294.9879275195
 31
0.0
  0
LINE
  5
3E4
330
209
100
AcDbEntity
  8
02___PRT_ALL_AXES
  6
Continuous
 62
     7
100
AcDbLine
 10
242.0595265687
 20
294.9879275195
 30
0.0
 11
254.5595265687
 21
294.9879275195
 31
0.0
  0
LINE
  5
3E5
330
209
100
AcDbEntity
  8
02___PRT_ALL_AXES
  6
Continuous
 62
     7
100
AcDbLine
 10
267.0595265687
 20
294.9879275195
 30
0.0
 11
279.5595265687
 21
294.9879275195
 31
0.0
  0
LINE
  5
3E6
330
209
100
AcDbEntity
  8
02___PRT_ALL_AXES
  6
Continuous
 62
     7
100
AcDbLine
 10
292.0595265687
 20
294.9879275195
 30
0.0
 11
304.5595265687
 21
294.9879275195
 31
0.0
  0
LINE
  5
3E7
330
209
100
AcDbEntity
  8
02___PRT_ALL_AXES
  6
Continuous
 62
     7
100
AcDbLine
 10
317.0595265687
 20
294.9879275195
 30
0.0
 11
329.5595265687
 21
294.9879275195
 31
0.0
  0
LINE
  5
3E8
330
209
100
AcDbEntity
  8
02___PRT_ALL_AXES
  6
Continuous
 62
     7
100
AcDbLine
 10
367.0595265687
 20
294.9879275195
 30
0.0
 11
379.5595265687
 21
294.9879275195
 31
0.0
  0
LINE
  5
3E9
330
209
100
AcDbEntity
  8
02___PRT_ALL_AXES
  6
Continuous
 62
     7
100
AcDbLine
 10
392.0595265687
 20
294.9879275195
 30
0.0
 11
404.5595265687
 21
294.9879275195
 31
0.0
  0
LINE
  5
3EA
330
209
100
AcDbEntity
  8
02___PRT_ALL_AXES
  6
Continuous
 62
     7
100
AcDbLine
 10
417.0595265687
 20
294.9879275195
 30
0.0
 11
429.5595265687
 21
294.9879275195
 31
0.0
  0
LINE
  5
3EB
330
209
100
AcDbEntity
  8
02___PRT_ALL_AXES
  6
Continuous
 62
     7
100
AcDbLine
 10
442.0595265687
 20
294.9879275195
 30
0.0
 11
454.5595265687
 21
294.9879275195
 31
0.0
  0
LINE
  5
3ED
330
209
100
AcDbEntity
  8
0
  6
Continuous
 62
     7
100
AcDbLine
 10
-44.19047343129999
 20
298.2379275195
 30
0.0
 11
-63.1904734313
 21
298.2379275195
 31
0.0
  0
LINE
  5
3EE
330
209
100
AcDbEntity
  8
0
  6
Continuous
 62
     7
100
AcDbLine
 10
465.8095265687
 20
298.2379275195
 30
0.0
 11
484.8095265687
 21
298.2379275195
 31
0.0
  0
LINE
  5
3EF
330
209
100
AcDbEntity
  8
02___PRT_ALL_AXES
  6
Continuous
 62
     7
100
AcDbLine
 10
242.0595265687
 20
259.4879275195
 30
0.0
 11
242.0595265687
 21
269.9879275195
 31
0.0
  0
LINE
  5
3F0
330
209
100
AcDbEntity
  8
02___PRT_ALL_AXES
  6
Continuous
 62
     7
100
AcDbLine
 10
242.0595265687
 20
284.4879275195
 30
0.0
 11
242.0595265687
 21
294.9879275195
 31
0.0
  0
LINE
  5
3F1
330
209
100
AcDbEntity
  8
0
  6
Continuous
 62
     7
100
AcDbLine
 10
465.8095265687
 20
301.2379275195
 30
0.0
 11
-44.19047343129999
 21
301.2379275195
 31
0.0
  0
LINE
  5
3F2
330
209
100
AcDbEntity
  8
02___PRT_ALL_AXES
  6
Continuous
 62
     7
100
AcDbLine
 10
254.5595265687
 20
294.9879275195
 30
0.0
 11
254.5595265687
 21
284.4879275195
 31
0.0
  0
LINE
  5
3F3
330
209
100
AcDbEntity
  8
02___PRT_ALL_AXES
  6
Continuous
 62
     7
100
AcDbLine
 10
254.5595265687
 20
269.9879275195
 30
0.0
 11
254.5595265687
 21
259.4879275195
 31
0.0
  0
LINE
  5
3F4
330
209
100
AcDbEntity
  8
02___PRT_ALL_AXES
  6
Continuous
 62
     7
100
AcDbLine
 10
267.0595265687
 20
259.4879275195
 30
0.0
 11
267.0595265687
 21
269.9879275195
 31
0.0
  0
LINE
  5
3F5
330
209
100
AcDbEntity
  8
02___PRT_ALL_AXES
  6
Continuous
 62
     7
100
AcDbLine
 10
267.0595265687
 20
284.4879275195
 30
0.0
 11
267.0595265687
 21
294.9879275195
 31
0.0
  0
LINE
  5
3F6
330
209
100
AcDbEntity
  8
02___PRT_ALL_AXES
  6
Continuous
 62
     7
100
AcDbLine
 10
279.5595265687
 20
294.9879275195
 30
0.0
 11
279.5595265687
 21
284.4879275195
 31
0.0
  0
LINE
  5
3F7
330
209
100
AcDbEntity
  8
02___PRT_ALL_AXES
  6
Continuous
 62
     7
100
AcDbLine
 10
279.5595265687
 20
269.9879275195
 30
0.0
 11
279.5595265687
 21
259.4879275195
 31
0.0
  0
LINE
  5
3F8
330
209
100
AcDbEntity
  8
02___PRT_ALL_AXES
  6
Continuous
 62
     7
100
AcDbLine
 10
292.0595265687
 20
259.4879275195
 30
0.0
 11
292.0595265687
 21
269.9879275195
 31
0.0
  0
LINE
  5
3F9
330
209
100
AcDbEntity
  8
02___PRT_ALL_AXES
  6
Continuous
 62
     7
100
AcDbLine
 10
292.0595265687
 20
284.4879275195
 30
0.0
 11
292.0595265687
 21
294.9879275195
 31
0.0
  0
LINE
  5
3FA
330
209
100
AcDbEntity
  8
02___PRT_ALL_AXES
  6
Continuous
 62
     7
100
AcDbLine
 10
304.5595265687
 20
294.9879275195
 30
0.0
 11
304.5595265687
 21
284.4879275195
 31
0.0
  0
LINE
  5
3FB
330
209
100
AcDbEntity
  8
02___PRT_ALL_AXES
  6
Continuous
 62
     7
100
AcDbLine
 10
304.5595265687
 20
269.9879275195
 30
0.0
 11
304.5595265687
 21
259.4879275195
 31
0.0
  0
LINE
  5
3FC
330
209
100
AcDbEntity
  8
02___PRT_ALL_AXES
  6
Continuous
 62
     7
100
AcDbLine
 10
317.0595265687
 20
259.4879275195
 30
0.0
 11
317.0595265687
 21
269.9879275195
 31
0.0
  0
LINE
  5
3FD
330
209
100
AcDbEntity
  8
02___PRT_ALL_AXES
  6
Continuous
 62
     7
100
AcDbLine
 10
317.0595265687
 20
284.4879275195
 30
0.0
 11
317.0595265687
 21
294.9879275195
 31
0.0
  0
LINE
  5
3FE
330
209
100
AcDbEntity
  8
02___PRT_ALL_AXES
  6
Continuous
 62
     7
100
AcDbLine
 10
329.5595265687
 20
294.9879275195
 30
0.0
 11
329.5595265687
 21
284.4879275195
 31
0.0
  0
LINE
  5
3FF
330
209
100
AcDbEntity
  8
02___PRT_ALL_AXES
  6
Continuous
 62
     7
100
AcDbLine
 10
329.5595265687
 20
269.9879275195
 30
0.0
 11
329.5595265687
 21
259.4879275195
 31
0.0
  0
LINE
  5
400
330
209
100
AcDbEntity
  8
02___PRT_ALL_AXES
  6
Continuous
 62
     7
100
AcDbLine
 10
342.0595265687
 20
259.4879275195
 30
0.0
 11
342.0595265687
 21
269.9879275195
 31
0.0
  0
LINE
  5
401
330
209
100
AcDbEntity
  8
02___PRT_ALL_AXES
  6
Continuous
 62
     7
100
AcDbLine
 10
342.0595265687
 20
284.4879275195
 30
0.0
 11
342.0595265687
 21
294.9879275195
 31
0.0
  0
LINE
  5
402
330
209
100
AcDbEntity
  8
02___PRT_ALL_AXES
  6
Continuous
 62
     7
100
AcDbLine
 10
354.5595265687
 20
294.9879275195
 30
0.0
 11
354.5595265687
 21
284.4879275195
 31
0.0
  0
LINE
  5
403
330
209
100
AcDbEntity
  8
02___PRT_ALL_AXES
  6
Continuous
 62
     7
100
AcDbLine
 10
354.5595265687
 20
269.9879275195
 30
0.0
 11
354.5595265687
 21
259.4879275195
 31
0.0
  0
LINE
  5
404
330
209
100
AcDbEntity
  8
02___PRT_ALL_AXES
  6
Continuous
 62
     7
100
AcDbLine
 10
367.0595265687
 20
259.4879275195
 30
0.0
 11
367.0595265687
 21
269.9879275195
 31
0.0
  0
LINE
  5
405
330
209
100
AcDbEntity
  8
02___PRT_ALL_AXES
  6
Continuous
 62
     7
100
AcDbLine
 10
367.0595265687
 20
284.4879275195
 30
0.0
 11
367.0595265687
 21
294.9879275195
 31
0.0
  0
LINE
  5
406
330
209
100
AcDbEntity
  8
02___PRT_ALL_AXES
  6
Continuous
 62
     7
100
AcDbLine
 10
379.5595265687
 20
294.9879275195
 30
0.0
 11
379.5595265687
 21
284.4879275195
 31
0.0
  0
LINE
  5
407
330
209
100
AcDbEntity
  8
02___PRT_ALL_AXES
  6
Continuous
 62
     7
100
AcDbLine
 10
379.5595265687
 20
269.9879275195
 30
0.0
 11
379.5595265687
 21
259.4879275195
 31
0.0
  0
LINE
  5
408
330
209
100
AcDbEntity
  8
02___PRT_ALL_AXES
  6
Continuous
 62
     7
100
AcDbLine
 10
392.0595265687
 20
259.4879275195
 30
0.0
 11
392.0595265687
 21
269.9879275195
 31
0.0
  0
LINE
  5
409
330
209
100
AcDbEntity
  8
02___PRT_ALL_AXES
  6
Continuous
 62
     7
100
AcDbLine
 10
392.0595265687
 20
284.4879275195
 30
0.0
 11
392.0595265687
 21
294.9879275195
 31
0.0
  0
LINE
  5
40A
330
209
100
AcDbEntity
  8
02___PRT_ALL_AXES
  6
Continuous
 62
     7
100
AcDbLine
 10
404.5595265687
 20
294.9879275195
 30
0.0
 11
404.5595265687
 21
284.4879275195
 31
0.0
  0
LINE
  5
40B
330
209
100
AcDbEntity
  8
02___PRT_ALL_AXES
  6
Continuous
 62
     7
100
AcDbLine
 10
404.5595265687
 20
269.9879275195
 30
0.0
 11
404.5595265687
 21
259.4879275195
 31
0.0
  0
LINE
  5
40C
330
209
100
AcDbEntity
  8
02___PRT_ALL_AXES
  6
Continuous
 62
     7
100
AcDbLine
 10
417.0595265687
 20
259.4879275195
 30
0.0
 11
417.0595265687
 21
269.9879275195
 31
0.0
  0
LINE
  5
40D
330
209
100
AcDbEntity
  8
02___PRT_ALL_AXES
  6
Continuous
 62
     7
100
AcDbLine
 10
417.0595265687
 20
284.4879275195
 30
0.0
 11
417.0595265687
 21
294.9879275195
 31
0.0
  0
LINE
  5
40E
330
209
100
AcDbEntity
  8
02___PRT_ALL_AXES
  6
Continuous
 62
     7
100
AcDbLine
 10
429.5595265687
 20
294.9879275195
 30
0.0
 11
429.5595265687
 21
284.4879275195
 31
0.0
  0
LINE
  5
40F
330
209
100
AcDbEntity
  8
02___PRT_ALL_AXES
  6
Continuous
 62
     7
100
AcDbLine
 10
429.5595265687
 20
269.9879275195
 30
0.0
 11
429.5595265687
 21
259.4879275195
 31
0.0
  0
LINE
  5
410
330
209
100
AcDbEntity
  8
02___PRT_ALL_AXES
  6
Continuous
 62
     7
100
AcDbLine
 10
442.0595265687
 20
259.4879275195
 30
0.0
 11
442.0595265687
 21
269.9879275195
 31
0.0
  0
LINE
  5
411
330
209
100
AcDbEntity
  8
02___PRT_ALL_AXES
  6
Continuous
 62
     7
100
AcDbLine
 10
442.0595265687
 20
284.4879275195
 30
0.0
 11
442.0595265687
 21
294.9879275195
 31
0.0
  0
LINE
  5
412
330
209
100
AcDbEntity
  8
02___PRT_ALL_AXES
  6
Continuous
 62
     7
100
AcDbLine
 10
454.5595265687
 20
294.9879275195
 30
0.0
 11
454.5595265687
 21
284.4879275195
 31
0.0
  0
LINE
  5
413
330
209
100
AcDbEntity
  8
02___PRT_ALL_AXES
  6
Continuous
 62
     7
100
AcDbLine
 10
454.5595265687
 20
269.9879275195
 30
0.0
 11
454.5595265687
 21
259.4879275195
 31
0.0
  0
LINE
  5
414
330
209
100
AcDbEntity
  8
0
  6
Continuous
 62
     7
100
AcDbLine
 10
465.8095265687
 20
256.2379275195
 30
0.0
 11
465.8095265687
 21
253.2379275195
 31
0.0
  0
LINE
  5
415
330
209
100
AcDbEntity
  8
0
  6
Continuous
 62
     7
100
AcDbLine
 10
465.8095265687
 20
298.2379275195
 30
0.0
 11
465.8095265687
 21
301.2379275195
 31
0.0
  0
LINE
  5
416
330
209
100
AcDbEntity
  8
0
  6
Continuous
 62
     7
100
AcDbLine
 10
466.0668858816
 20
256.2379275195
 30
0.0
 11
466.0668858816
 21
298.2379275195
 31
0.0
  0
LINE
  5
418
330
209
100
AcDbEntity
  8
0
  6
Continuous
 62
     7
100
AcDbLine
 10
467.3095265687
 20
256.2379275195
 30
0.0
 11
467.3095265687
 21
298.2379275195
 31
0.0
  0
LINE
  5
419
330
209
100
AcDbEntity
  8
0
  6
Continuous
 62
     7
100
AcDbLine
 10
469.4308469123
 20
256.2379275195
 30
0.0
 11
469.4308469123
 21
298.2379275195
 31
0.0
  0
LINE
  5
41A
330
209
100
AcDbEntity
  8
0
  6
Continuous
 62
     7
100
AcDbLine
 10
489.8095265687
 20
261.2379275195
 30
0.0
 11
489.8095265687
 21
293.2379275195
 31
0.0
  0
LINE
  5
41B
330
209
100
AcDbEntity
  8
0
  6
Continuous
 62
     7
100
AcDbLine
 10
551.3837842094
 20
253.2379275195
 30
0.0
 11
568.3837842094
 21
253.2379275195
 31
0.0
  0
LINE
  5
41C
330
209
100
AcDbEntity
  8
0
  6
Continuous
 62
     7
100
AcDbLine
 10
551.3837842094
 20
254.7379275195
 30
0.0
 11
568.3837842094
 21
254.7379275195
 31
0.0
  0
LINE
  5
41D
330
209
100
AcDbEntity
  8
0
  6
Continuous
 62
     7
100
AcDbLine
 10
569.8837842094
 20
256.2379275195
 30
0.0
 11
572.8837842094
 21
256.2379275195
 31
0.0
  0
LINE
  5
41E
330
209
100
AcDbEntity
  8
0
  6
Continuous
 62
     7
100
AcDbLine
 10
548.3837842094
 20
263.2379275195
 30
0.0
 11
549.8837842093999
 21
263.2379275195
 31
0.0
  0
LINE
  5
41F
330
209
100
AcDbEntity
  8
0
  6
Continuous
 62
     7
100
AcDbLine
 10
548.3837842094
 20
298.2379275195
 30
0.0
 11
548.3837842094
 21
291.2379275195
 31
0.0
  0
LINE
  5
420
330
209
100
AcDbEntity
  8
0
  6
Continuous
 62
     7
100
AcDbLine
 10
548.3837842094
 20
263.2379275195
 30
0.0
 11
548.3837842094
 21
256.2379275195
 31
0.0
  0
LINE
  5
421
330
209
100
AcDbEntity
  8
0
  6
Continuous
 62
     7
100
AcDbLine
 10
549.8837842093999
 20
298.2379275195
 30
0.0
 11
549.8837842093999
 21
291.2379275195
 31
0.0
  0
LINE
  5
422
330
209
100
AcDbEntity
  8
0
  6
Continuous
 62
     7
100
AcDbLine
 10
549.8837842093999
 20
263.2379275195
 30
0.0
 11
549.8837842093999
 21
256.2379275195
 31
0.0
  0
LINE
  5
423
330
209
100
AcDbEntity
  8
0
  6
Continuous
 62
     7
100
AcDbLine
 10
569.8837842094
 20
298.2379275195
 30
0.0
 11
569.8837842094
 21
256.2379275195
 31
0.0
  0
LINE
  5
424
330
209
100
AcDbEntity
  8
0
  6
Continuous
 62
     7
100
AcDbLine
 10
571.3837842094
 20
256.2379275195
 30
0.0
 11
571.3837842094
 21
298.2379275195
 31
0.0
  0
LINE
  5
425
330
209
100
AcDbEntity
  8
0
  6
Continuous
 62
     7
100
AcDbLine
 10
572.8837842094
 20
298.2379275195
 30
0.0
 11
572.8837842094
 21
256.2379275195
 31
0.0
  0
LINE
  5
426
330
209
100
AcDbEntity
  8
0
  6
Continuous
 62
     7
100
AcDbLine
 10
548.3837842094
 20
291.2379275195
 30
0.0
 11
549.8837842093999
 21
291.2379275195
 31
0.0
  0
LINE
  5
427
330
209
100
AcDbEntity
  8
0
  6
Continuous
 62
     7
100
AcDbLine
 10
569.8837842094
 20
298.2379275195
 30
0.0
 11
572.8837842094
 21
298.2379275195
 31
0.0
  0
LINE
  5
428
330
209
100
AcDbEntity
  8
0
  6
Continuous
 62
     7
100
AcDbLine
 10
568.3837842094
 20
299.7379275195001
 30
0.0
 11
551.3837842094
 21
299.7379275195001
 31
0.0
  0
LINE
  5
429
330
209
100
AcDbEntity
  8
0
  6
Continuous
 62
     7
100
AcDbLine
 10
568.3837842094
 20
301.2379275195
 30
0.0
 11
551.3837842094
 21
301.2379275195
 31
0.0
  0
LINE
  5
42A
330
209
100
AcDbEntity
  8
0
  6
Continuous
 62
     7
100
AcDbLine
 10
-68.19047343130001
 20
138.2545401169
 30
0.0
 11
-68.19047343130001
 21
139.7545401169
 31
0.0
  0
LINE
  5
42B
330
209
100
AcDbEntity
  8
0
  6
Continuous
 62
     7
100
AcDbLine
 10
-44.19047343129999
 20
139.7545401169
 30
0.0
 11
-44.19047343129999
 21
162.7545401169
 31
0.0
  0
LINE
  5
42C
330
209
100
AcDbEntity
  8
02___PRT_ALL_AXES
  6
Continuous
 62
     7
100
AcDbLine
 10
-32.9404734313
 20
156.5045401169
 30
0.0
 11
-32.9404734313
 21
146.0045401169
 31
0.0
  0
LINE
  5
42D
330
209
100
AcDbEntity
  8
02___PRT_ALL_AXES
  6
Continuous
 62
     7
100
AcDbLine
 10
-20.4404734313
 20
146.0045401169
 30
0.0
 11
-20.4404734313
 21
156.5045401169
 31
0.0
  0
LINE
  5
42E
330
209
100
AcDbEntity
  8
02___PRT_ALL_AXES
  6
Continuous
 62
     7
100
AcDbLine
 10
-7.9404734313
 20
156.5045401169
 30
0.0
 11
-7.9404734313
 21
146.0045401169
 31
0.0
  0
LINE
  5
42F
330
209
100
AcDbEntity
  8
02___PRT_ALL_AXES
  6
Continuous
 62
     7
100
AcDbLine
 10
4.559526568699999
 20
146.0045401169
 30
0.0
 11
4.559526568699999
 21
156.5045401169
 31
0.0
  0
LINE
  5
430
330
209
100
AcDbEntity
  8
02___PRT_ALL_AXES
  6
Continuous
 62
     7
100
AcDbLine
 10
17.0595265687
 20
156.5045401169
 30
0.0
 11
17.0595265687
 21
146.0045401169
 31
0.0
  0
LINE
  5
431
330
209
100
AcDbEntity
  8
02___PRT_ALL_AXES
  6
Continuous
 62
     7
100
AcDbLine
 10
29.5595265687
 20
146.0045401169
 30
0.0
 11
29.5595265687
 21
156.5045401169
 31
0.0
  0
LINE
  5
432
330
209
100
AcDbEntity
  8
02___PRT_ALL_AXES
  6
Continuous
 62
     7
100
AcDbLine
 10
42.0595265687
 20
156.5045401169
 30
0.0
 11
42.0595265687
 21
146.0045401169
 31
0.0
  0
LINE
  5
433
330
209
100
AcDbEntity
  8
0
  6
Continuous
 62
     7
100
AcDbLine
 10
-46.5691530877
 20
140.3758604604
 30
0.0
 11
-46.7511336031
 21
140.1938799451
 31
0.0
  0
LINE
  5
434
330
209
100
AcDbEntity
  8
0
  6
Continuous
 62
     7
100
AcDbLine
 10
-45.508492916
 20
139.3152002887
 30
0.0
 11
-45.6904734313
 21
139.1332197733
 31
0.0
  0
LINE
  5
435
330
209
100
AcDbEntity
  8
02___PRT_ALL_AXES
  6
Continuous
 62
     7
100
AcDbLine
 10
54.5595265687
 20
146.0045401169
 30
0.0
 11
54.5595265687
 21
156.5045401169
 31
0.0
  0
LINE
  5
436
330
209
100
AcDbEntity
  8
0
  6
Continuous
 62
     7
100
AcDbLine
 10
67.0595265687
 20
156.5045401169
 30
0.0
 11
67.0595265687
 21
146.0045401169
 31
0.0
  0
LINE
  5
437
330
209
100
AcDbEntity
  8
0
  6
Continuous
 62
     7
100
AcDbLine
 10
79.5595265687
 20
146.0045401169
 30
0.0
 11
79.5595265687
 21
156.5045401169
 31
0.0
  0
LINE
  5
438
330
209
100
AcDbEntity
  8
02___PRT_ALL_AXES
  6
Continuous
 62
     7
100
AcDbLine
 10
92.05952656870001
 20
156.5045401169
 30
0.0
 11
92.05952656870001
 21
146.0045401169
 31
0.0
  0
LINE
  5
439
330
209
100
AcDbEntity
  8
02___PRT_ALL_AXES
  6
Continuous
 62
     7
100
AcDbLine
 10
104.5595265687
 20
146.0045401169
 30
0.0
 11
104.5595265687
 21
156.5045401169
 31
0.0
  0
LINE
  5
43A
330
209
100
AcDbEntity
  8
02___PRT_ALL_AXES
  6
Continuous
 62
     7
100
AcDbLine
 10
117.0595265687
 20
156.5045401169
 30
0.0
 11
117.0595265687
 21
146.0045401169
 31
0.0
  0
LINE
  5
43B
330
209
100
AcDbEntity
  8
02___PRT_ALL_AXES
  6
Continuous
 62
     7
100
AcDbLine
 10
129.5595265687
 20
146.0045401169
 30
0.0
 11
129.5595265687
 21
156.5045401169
 31
0.0
  0
LINE
  5
43C
330
209
100
AcDbEntity
  8
02___PRT_ALL_AXES
  6
Continuous
 62
     7
100
AcDbLine
 10
142.0595265687
 20
156.5045401169
 30
0.0
 11
142.0595265687
 21
146.0045401169
 31
0.0
  0
LINE
  5
43D
330
209
100
AcDbEntity
  8
02___PRT_ALL_AXES
  6
Continuous
 62
     7
100
AcDbLine
 10
154.5595265687
 20
146.0045401169
 30
0.0
 11
154.5595265687
 21
156.5045401169
 31
0.0
  0
LINE
  5
43E
330
209
100
AcDbEntity
  8
02___PRT_ALL_AXES
  6
Continuous
 62
     7
100
AcDbLine
 10
167.0595265687
 20
156.5045401169
 30
0.0
 11
167.0595265687
 21
146.0045401169
 31
0.0
  0
LINE
  5
43F
330
209
100
AcDbEntity
  8
02___PRT_ALL_AXES
  6
Continuous
 62
     7
100
AcDbLine
 10
179.5595265687
 20
146.0045401169
 30
0.0
 11
179.5595265687
 21
156.5045401169
 31
0.0
  0
LINE
  5
440
330
209
100
AcDbEntity
  8
02___PRT_ALL_AXES
  6
Continuous
 62
     7
100
AcDbLine
 10
192.0595265687
 20
156.5045401169
 30
0.0
 11
192.0595265687
 21
146.0045401169
 31
0.0
  0
LINE
  5
441
330
209
100
AcDbEntity
  8
02___PRT_ALL_AXES
  6
Continuous
 62
     7
100
AcDbLine
 10
204.5595265687
 20
146.0045401169
 30
0.0
 11
204.5595265687
 21
156.5045401169
 31
0.0
  0
LINE
  5
442
330
209
100
AcDbEntity
  8
0
  6
Continuous
 62
     7
100
AcDbLine
 10
-47.81179377489999
 20
138.2545401169
 30
0.0
 11
-68.19047343130001
 21
138.2545401169
 31
0.0
  0
LINE
  5
443
330
209
100
AcDbEntity
  8
0
  6
Continuous
 62
     7
100
AcDbLine
 10
469.4308469123
 20
138.2545401169
 30
0.0
 11
489.8095265687
 21
138.2545401169
 31
0.0
  0
LINE
  5
444
330
209
100
AcDbEntity
  8
0
  6
Continuous
 62
     7
100
AcDbLine
 10
466.0668858816
 20
139.7545401169
 30
0.0
 11
-44.44783274419999
 21
139.7545401169
 31
0.0
  0
LINE
  5
445
330
209
100
AcDbEntity
  8
0
  6
Continuous
 62
     7
100
AcDbLine
 10
-47.81179377489999
 20
139.7545401169
 30
0.0
 11
-68.19047343130001
 21
139.7545401169
 31
0.0
  0
LINE
  5
446
330
209
100
AcDbEntity
  8
0
  6
Continuous
 62
     7
100
AcDbLine
 10
469.4308469123
 20
139.7545401169
 30
0.0
 11
489.8095265687
 21
139.7545401169
 31
0.0
  0
LINE
  5
447
330
209
100
AcDbEntity
  8
0
  6
Continuous
 62
     7
100
AcDbLine
 10
466.0668858816
 20
141.2545401169
 30
0.0
 11
465.8095265687
 21
141.2545401169
 31
0.0
  0
LINE
  5
448
330
209
100
AcDbEntity
  8
0
  6
Continuous
 62
     7
100
AcDbLine
 10
-44.44783274419999
 20
141.2545401169
 30
0.0
 11
-44.19047343129999
 21
141.2545401169
 31
0.0
  0
LINE
  5
449
330
209
100
AcDbEntity
  8
02___PRT_ALL_AXES
  6
Continuous
 62
     7
100
AcDbLine
 10
-32.9404734313
 20
146.0045401169
 30
0.0
 11
-20.4404734313
 21
146.0045401169
 31
0.0
  0
LINE
  5
44A
330
209
100
AcDbEntity
  8
02___PRT_ALL_AXES
  6
Continuous
 62
     7
100
AcDbLine
 10
-7.9404734313
 20
146.0045401169
 30
0.0
 11
4.559526568699999
 21
146.0045401169
 31
0.0
  0
LINE
  5
44B
330
209
100
AcDbEntity
  8
02___PRT_ALL_AXES
  6
Continuous
 62
     7
100
AcDbLine
 10
17.0595265687
 20
146.0045401169
 30
0.0
 11
29.5595265687
 21
146.0045401169
 31
0.0
  0
LINE
  5
44C
330
209
100
AcDbEntity
  8
02___PRT_ALL_AXES
  6
Continuous
 62
     7
100
AcDbLine
 10
42.0595265687
 20
146.0045401169
 30
0.0
 11
54.5595265687
 21
146.0045401169
 31
0.0
  0
LINE
  5
44D
330
209
100
AcDbEntity
  8
0
  6
Continuous
 62
     7
100
AcDbLine
 10
67.0595265687
 20
146.0045401169
 30
0.0
 11
79.5595265687
 21
146.0045401169
 31
0.0
  0
LINE
  5
44E
330
209
100
AcDbEntity
  8
02___PRT_ALL_AXES
  6
Continuous
 62
     7
100
AcDbLine
 10
92.05952656870001
 20
146.0045401169
 30
0.0
 11
104.5595265687
 21
146.0045401169
 31
0.0
  0
LINE
  5
44F
330
209
100
AcDbEntity
  8
02___PRT_ALL_AXES
  6
Continuous
 62
     7
100
AcDbLine
 10
117.0595265687
 20
146.0045401169
 30
0.0
 11
129.5595265687
 21
146.0045401169
 31
0.0
  0
LINE
  5
450
330
209
100
AcDbEntity
  8
02___PRT_ALL_AXES
  6
Continuous
 62
     7
100
AcDbLine
 10
142.0595265687
 20
146.0045401169
 30
0.0
 11
154.5595265687
 21
146.0045401169
 31
0.0
  0
LINE
  5
451
330
209
100
AcDbEntity
  8
02___PRT_ALL_AXES
  6
Continuous
 62
     7
100
AcDbLine
 10
167.0595265687
 20
146.0045401169
 30
0.0
 11
179.5595265687
 21
146.0045401169
 31
0.0
  0
LINE
  5
452
330
209
100
AcDbEntity
  8
02___PRT_ALL_AXES
  6
Continuous
 62
     7
100
AcDbLine
 10
192.0595265687
 20
146.0045401169
 30
0.0
 11
204.5595265687
 21
146.0045401169
 31
0.0
  0
LINE
  5
453
330
209
100
AcDbEntity
  8
02___PRT_ALL_AXES
  6
Continuous
 62
     7
100
AcDbLine
 10
217.0595265687
 20
146.0045401169
 30
0.0
 11
229.5595265687
 21
146.0045401169
 31
0.0
  0
LINE
  5
454
330
209
100
AcDbEntity
  8
02___PRT_ALL_AXES
  6
Continuous
 62
     7
100
AcDbLine
 10
242.0595265687
 20
146.0045401169
 30
0.0
 11
254.5595265687
 21
146.0045401169
 31
0.0
  0
LINE
  5
455
330
209
100
AcDbEntity
  8
02___PRT_ALL_AXES
  6
Continuous
 62
     7
100
AcDbLine
 10
267.0595265687
 20
146.0045401169
 30
0.0
 11
279.5595265687
 21
146.0045401169
 31
0.0
  0
LINE
  5
456
330
209
100
AcDbEntity
  8
02___PRT_ALL_AXES
  6
Continuous
 62
     7
100
AcDbLine
 10
292.0595265687
 20
146.0045401169
 30
0.0
 11
304.5595265687
 21
146.0045401169
 31
0.0
  0
LINE
  5
457
330
209
100
AcDbEntity
  8
02___PRT_ALL_AXES
  6
Continuous
 62
     7
100
AcDbLine
 10
317.0595265687
 20
146.0045401169
 30
0.0
 11
329.5595265687
 21
146.0045401169
 31
0.0
  0
LINE
  5
458
330
209
100
AcDbEntity
  8
0
  6
Continuous
 62
     7
100
AcDbLine
 10
342.0595265687
 20
146.0045401169
 30
0.0
 11
354.5595265687
 21
146.0045401169
 31
0.0
  0
LINE
  5
459
330
209
100
AcDbEntity
  8
02___PRT_ALL_AXES
  6
Continuous
 62
     7
100
AcDbLine
 10
367.0595265687
 20
146.0045401169
 30
0.0
 11
379.5595265687
 21
146.0045401169
 31
0.0
  0
LINE
  5
45A
330
209
100
AcDbEntity
  8
02___PRT_ALL_AXES
  6
Continuous
 62
     7
100
AcDbLine
 10
392.0595265687
 20
146.0045401169
 30
0.0
 11
404.5595265687
 21
146.0045401169
 31
0.0
  0
LINE
  5
45B
330
209
100
AcDbEntity
  8
02___PRT_ALL_AXES
  6
Continuous
 62
     7
100
AcDbLine
 10
417.0595265687
 20
146.0045401169
 30
0.0
 11
429.5595265687
 21
146.0045401169
 31
0.0
  0
LINE
  5
45C
330
209
100
AcDbEntity
  8
02___PRT_ALL_AXES
  6
Continuous
 62
     7
100
AcDbLine
 10
442.0595265687
 20
146.0045401169
 30
0.0
 11
454.5595265687
 21
146.0045401169
 31
0.0
  0
LINE
  5
45D
330
209
100
AcDbEntity
  8
02___PRT_ALL_AXES
  6
Continuous
 62
     7
100
AcDbLine
 10
217.0595265687
 20
156.5045401169
 30
0.0
 11
217.0595265687
 21
146.0045401169
 31
0.0
  0
LINE
  5
45E
330
209
100
AcDbEntity
  8
02___PRT_ALL_AXES
  6
Continuous
 62
     7
100
AcDbLine
 10
229.5595265687
 20
146.0045401169
 30
0.0
 11
229.5595265687
 21
156.5045401169
 31
0.0
  0
LINE
  5
45F
330
209
100
AcDbEntity
  8
02___PRT_ALL_AXES
  6
Continuous
 62
     7
100
AcDbLine
 10
454.5595265687
 20
156.5045401169
 30
0.0
 11
442.0595265687
 21
156.5045401169
 31
0.0
  0
LINE
  5
460
330
209
100
AcDbEntity
  8
02___PRT_ALL_AXES
  6
Continuous
 62
     7
100
AcDbLine
 10
429.5595265687
 20
156.5045401169
 30
0.0
 11
417.0595265687
 21
156.5045401169
 31
0.0
  0
LINE
  5
461
330
209
100
AcDbEntity
  8
02___PRT_ALL_AXES
  6
Continuous
 62
     7
100
AcDbLine
 10
404.5595265687
 20
156.5045401169
 30
0.0
 11
392.0595265687
 21
156.5045401169
 31
0.0
  0
LINE
  5
462
330
209
100
AcDbEntity
  8
02___PRT_ALL_AXES
  6
Continuous
 62
     7
100
AcDbLine
 10
379.5595265687
 20
156.5045401169
 30
0.0
 11
367.0595265687
 21
156.5045401169
 31
0.0
  0
LINE
  5
463
330
209
100
AcDbEntity
  8
0
  6
Continuous
 62
     7
100
AcDbLine
 10
354.5595265687
 20
156.5045401169
 30
0.0
 11
342.0595265687
 21
156.5045401169
 31
0.0
  0
LINE
  5
464
330
209
100
AcDbEntity
  8
02___PRT_ALL_AXES
  6
Continuous
 62
     7
100
AcDbLine
 10
329.5595265687
 20
156.5045401169
 30
0.0
 11
317.0595265687
 21
156.5045401169
 31
0.0
  0
LINE
  5
465
330
209
100
AcDbEntity
  8
02___PRT_ALL_AXES
  6
Continuous
 62
     7
100
AcDbLine
 10
304.5595265687
 20
156.5045401169
 30
0.0
 11
292.0595265687
 21
156.5045401169
 31
0.0
  0
LINE
  5
466
330
209
100
AcDbEntity
  8
02___PRT_ALL_AXES
  6
Continuous
 62
     7
100
AcDbLine
 10
279.5595265687
 20
156.5045401169
 30
0.0
 11
267.0595265687
 21
156.5045401169
 31
0.0
  0
LINE
  5
467
330
209
100
AcDbEntity
  8
02___PRT_ALL_AXES
  6
Continuous
 62
     7
100
AcDbLine
 10
254.5595265687
 20
156.5045401169
 30
0.0
 11
242.0595265687
 21
156.5045401169
 31
0.0
  0
LINE
  5
468
330
209
100
AcDbEntity
  8
02___PRT_ALL_AXES
  6
Continuous
 62
     7
100
AcDbLine
 10
229.5595265687
 20
156.5045401169
 30
0.0
 11
217.0595265687
 21
156.5045401169
 31
0.0
  0
LINE
  5
469
330
209
100
AcDbEntity
  8
02___PRT_ALL_AXES
  6
Continuous
 62
     7
100
AcDbLine
 10
204.5595265687
 20
156.5045401169
 30
0.0
 11
192.0595265687
 21
156.5045401169
 31
0.0
  0
LINE
  5
46A
330
209
100
AcDbEntity
  8
02___PRT_ALL_AXES
  6
Continuous
 62
     7
100
AcDbLine
 10
179.5595265687
 20
156.5045401169
 30
0.0
 11
167.0595265687
 21
156.5045401169
 31
0.0
  0
LINE
  5
46B
330
209
100
AcDbEntity
  8
02___PRT_ALL_AXES
  6
Continuous
 62
     7
100
AcDbLine
 10
154.5595265687
 20
156.5045401169
 30
0.0
 11
142.0595265687
 21
156.5045401169
 31
0.0
  0
LINE
  5
46C
330
209
100
AcDbEntity
  8
02___PRT_ALL_AXES
  6
Continuous
 62
     7
100
AcDbLine
 10
129.5595265687
 20
156.5045401169
 30
0.0
 11
117.0595265687
 21
156.5045401169
 31
0.0
  0
LINE
  5
46D
330
209
100
AcDbEntity
  8
02___PRT_ALL_AXES
  6
Continuous
 62
     7
100
AcDbLine
 10
104.5595265687
 20
156.5045401169
 30
0.0
 11
92.05952656870001
 21
156.5045401169
 31
0.0
  0
LINE
  5
46E
330
209
100
AcDbEntity
  8
0
  6
Continuous
 62
     7
100
AcDbLine
 10
79.5595265687
 20
156.5045401169
 30
0.0
 11
67.0595265687
 21
156.5045401169
 31
0.0
  0
LINE
  5
46F
330
209
100
AcDbEntity
  8
02___PRT_ALL_AXES
  6
Continuous
 62
     7
100
AcDbLine
 10
54.5595265687
 20
156.5045401169
 30
0.0
 11
42.0595265687
 21
156.5045401169
 31
0.0
  0
LINE
  5
470
330
209
100
AcDbEntity
  8
02___PRT_ALL_AXES
  6
Continuous
 62
     7
100
AcDbLine
 10
29.5595265687
 20
156.5045401169
 30
0.0
 11
17.0595265687
 21
156.5045401169
 31
0.0
  0
LINE
  5
471
330
209
100
AcDbEntity
  8
02___PRT_ALL_AXES
  6
Continuous
 62
     7
100
AcDbLine
 10
4.559526568699999
 20
156.5045401169
 30
0.0
 11
-7.9404734313
 21
156.5045401169
 31
0.0
  0
LINE
  5
472
330
209
100
AcDbEntity
  8
02___PRT_ALL_AXES
  6
Continuous
 62
     7
100
AcDbLine
 10
-20.4404734313
 20
156.5045401169
 30
0.0
 11
-32.9404734313
 21
156.5045401169
 31
0.0
  0
LINE
  5
473
330
209
100
AcDbEntity
  8
0
  6
Continuous
 62
     7
100
AcDbLine
 10
465.8095265687
 20
162.7545401169
 30
0.0
 11
-44.19047343129999
 21
162.7545401169
 31
0.0
  0
LINE
  5
474
330
209
100
AcDbEntity
  8
02___PRT_ALL_AXES
  6
Continuous
 62
     7
100
AcDbLine
 10
242.0595265687
 20
156.5045401169
 30
0.0
 11
242.0595265687
 21
146.0045401169
 31
0.0
  0
LINE
  5
475
330
209
100
AcDbEntity
  8
02___PRT_ALL_AXES
  6
Continuous
 62
     7
100
AcDbLine
 10
254.5595265687
 20
146.0045401169
 30
0.0
 11
254.5595265687
 21
156.5045401169
 31
0.0
  0
LINE
  5
476
330
209
100
AcDbEntity
  8
02___PRT_ALL_AXES
  6
Continuous
 62
     7
100
AcDbLine
 10
267.0595265687
 20
156.5045401169
 30
0.0
 11
267.0595265687
 21
146.0045401169
 31
0.0
  0
LINE
  5
477
330
209
100
AcDbEntity
  8
02___PRT_ALL_AXES
  6
Continuous
 62
     7
100
AcDbLine
 10
279.5595265687
 20
146.0045401169
 30
0.0
 11
279.5595265687
 21
156.5045401169
 31
0.0
  0
LINE
  5
478
330
209
100
AcDbEntity
  8
02___PRT_ALL_AXES
  6
Continuous
 62
     7
100
AcDbLine
 10
292.0595265687
 20
156.5045401169
 30
0.0
 11
292.0595265687
 21
146.0045401169
 31
0.0
  0
LINE
  5
479
330
209
100
AcDbEntity
  8
02___PRT_ALL_AXES
  6
Continuous
 62
     7
100
AcDbLine
 10
304.5595265687
 20
146.0045401169
 30
0.0
 11
304.5595265687
 21
156.5045401169
 31
0.0
  0
LINE
  5
47A
330
209
100
AcDbEntity
  8
02___PRT_ALL_AXES
  6
Continuous
 62
     7
100
AcDbLine
 10
317.0595265687
 20
156.5045401169
 30
0.0
 11
317.0595265687
 21
146.0045401169
 31
0.0
  0
LINE
  5
47B
330
209
100
AcDbEntity
  8
02___PRT_ALL_AXES
  6
Continuous
 62
     7
100
AcDbLine
 10
329.5595265687
 20
146.0045401169
 30
0.0
 11
329.5595265687
 21
156.5045401169
 31
0.0
  0
LINE
  5
47C
330
209
100
AcDbEntity
  8
0
  6
Continuous
 62
     7
100
AcDbLine
 10
342.0595265687
 20
156.5045401169
 30
0.0
 11
342.0595265687
 21
146.0045401169
 31
0.0
  0
LINE
  5
47D
330
209
100
AcDbEntity
  8
0
  6
Continuous
 62
     7
100
AcDbLine
 10
354.5595265687
 20
146.0045401169
 30
0.0
 11
354.5595265687
 21
156.5045401169
 31
0.0
  0
LINE
  5
47E
330
209
100
AcDbEntity
  8
02___PRT_ALL_AXES
  6
Continuous
 62
     7
100
AcDbLine
 10
367.0595265687
 20
156.5045401169
 30
0.0
 11
367.0595265687
 21
146.0045401169
 31
0.0
  0
LINE
  5
47F
330
209
100
AcDbEntity
  8
02___PRT_ALL_AXES
  6
Continuous
 62
     7
100
AcDbLine
 10
379.5595265687
 20
146.0045401169
 30
0.0
 11
379.5595265687
 21
156.5045401169
 31
0.0
  0
LINE
  5
480
330
209
100
AcDbEntity
  8
02___PRT_ALL_AXES
  6
Continuous
 62
     7
100
AcDbLine
 10
392.0595265687
 20
156.5045401169
 30
0.0
 11
392.0595265687
 21
146.0045401169
 31
0.0
  0
LINE
  5
481
330
209
100
AcDbEntity
  8
0
  6
Continuous
 62
     7
100
AcDbLine
 10
467.1275460533999
 20
139.3152002887
 30
0.0
 11
467.3095265687
 21
139.1332197733
 31
0.0
  0
LINE
  5
482
330
209
100
AcDbEntity
  8
0
  6
Continuous
 62
     7
100
AcDbLine
 10
468.1882062251
 20
140.3758604604
 30
0.0
 11
468.3701867405
 21
140.1938799451
 31
0.0
  0
LINE
  5
483
330
209
100
AcDbEntity
  8
02___PRT_ALL_AXES
  6
Continuous
 62
     7
100
AcDbLine
 10
404.5595265687
 20
146.0045401169
 30
0.0
 11
404.5595265687
 21
156.5045401169
 31
0.0
  0
LINE
  5
484
330
209
100
AcDbEntity
  8
02___PRT_ALL_AXES
  6
Continuous
 62
     7
100
AcDbLine
 10
417.0595265687
 20
156.5045401169
 30
0.0
 11
417.0595265687
 21
146.0045401169
 31
0.0
  0
LINE
  5
485
330
209
100
AcDbEntity
  8
02___PRT_ALL_AXES
  6
Continuous
 62
     7
100
AcDbLine
 10
429.5595265687
 20
146.0045401169
 30
0.0
 11
429.5595265687
 21
156.5045401169
 31
0.0
  0
LINE
  5
486
330
209
100
AcDbEntity
  8
02___PRT_ALL_AXES
  6
Continuous
 62
     7
100
AcDbLine
 10
442.0595265687
 20
156.5045401169
 30
0.0
 11
442.0595265687
 21
146.0045401169
 31
0.0
  0
LINE
  5
487
330
209
100
AcDbEntity
  8
02___PRT_ALL_AXES
  6
Continuous
 62
     7
100
AcDbLine
 10
454.5595265687
 20
146.0045401169
 30
0.0
 11
454.5595265687
 21
156.5045401169
 31
0.0
  0
LINE
  5
488
330
209
100
AcDbEntity
  8
0
  6
Continuous
 62
     7
100
AcDbLine
 10
465.8095265687
 20
139.7545401169
 30
0.0
 11
465.8095265687
 21
162.7545401169
 31
0.0
  0
LINE
  5
489
330
209
100
AcDbEntity
  8
0
  6
Continuous
 62
     7
100
AcDbLine
 10
489.8095265687
 20
138.2545401169
 30
0.0
 11
489.8095265687
 21
139.7545401169
 31
0.0
  0
ARC
  5
48A
330
209
100
AcDbEntity
  8
0
  6
Continuous
 62
     7
100
AcDbCircle
 10
-63.1904734313
 20
261.2379275195
 30
0.0
 40
5.0
100
AcDbArc
 50
180.0
 51
270.0
  0
ARC
  5
48B
330
209
100
AcDbEntity
  8
0
  6
Continuous
 62
     7
100
AcDbCircle
 10
-57.4404734313
 20
264.7379275195
 30
0.0
 40
3.399999999999999
100
AcDbArc
 50
270.0
 51
90.0
  0
ARC
  5
48C
330
209
100
AcDbEntity
  8
0
  6
Continuous
 62
     7
100
AcDbCircle
 10
-60.9404734313
 20
264.7379275195
 30
0.0
 40
3.399999999999999
100
AcDbArc
 50
90.0
 51
270.0
  0
CIRCLE
  5
48D
330
209
100
AcDbEntity
  8
02___PRT_ALL_AXES
  6
Continuous
 62
     7
100
AcDbCircle
 10
185.8095265687
 20
264.7379275195
 30
0.0
 40
2.25
  0
CIRCLE
  5
48E
330
209
100
AcDbEntity
  8
02___PRT_ALL_AXES
  6
Continuous
 62
     7
100
AcDbCircle
 10
160.8095265687
 20
264.7379275195
 30
0.0
 40
2.25
  0
CIRCLE
  5
48F
330
209
100
AcDbEntity
  8
02___PRT_ALL_AXES
  6
Continuous
 62
     7
100
AcDbCircle
 10
135.8095265687
 20
264.7379275195
 30
0.0
 40
2.25
  0
CIRCLE
  5
490
330
209
100
AcDbEntity
  8
02___PRT_ALL_AXES
  6
Continuous
 62
     7
100
AcDbCircle
 10
110.8095265687
 20
264.7379275195
 30
0.0
 40
2.25
  0
CIRCLE
  5
491
330
209
100
AcDbEntity
  8
02___PRT_ALL_AXES
  6
Continuous
 62
     7
100
AcDbCircle
 10
85.8095265687
 20
264.7379275195
 30
0.0
 40
2.25
  0
CIRCLE
  5
492
330
209
100
AcDbEntity
  8
02___PRT_ALL_AXES
  6
Continuous
 62
     7
100
AcDbCircle
 10
60.8095265687
 20
264.7379275195
 30
0.0
 40
2.25
  0
CIRCLE
  5
493
330
209
100
AcDbEntity
  8
02___PRT_ALL_AXES
  6
Continuous
 62
     7
100
AcDbCircle
 10
35.8095265687
 20
264.7379275195
 30
0.0
 40
2.25
  0
CIRCLE
  5
494
330
209
100
AcDbEntity
  8
02___PRT_ALL_AXES
  6
Continuous
 62
     7
100
AcDbCircle
 10
10.8095265687
 20
264.7379275195
 30
0.0
 40
2.25
  0
CIRCLE
  5
495
330
209
100
AcDbEntity
  8
02___PRT_ALL_AXES
  6
Continuous
 62
     7
100
AcDbCircle
 10
-14.1904734313
 20
264.7379275195
 30
0.0
 40
2.25
  0
CIRCLE
  5
496
330
209
100
AcDbEntity
  8
02___PRT_ALL_AXES
  6
Continuous
 62
     7
100
AcDbCircle
 10
-39.1904734313
 20
264.7379275195
 30
0.0
 40
2.25
  0
CIRCLE
  5
497
330
209
100
AcDbEntity
  8
02___PRT_ALL_AXES
  6
Continuous
 62
     7
100
AcDbCircle
 10
60.8095265687
 20
277.2379275195
 30
0.0
 40
2.25
  0
CIRCLE
  5
498
330
209
100
AcDbEntity
  8
02___PRT_ALL_AXES
  6
Continuous
 62
     7
100
AcDbCircle
 10
48.3095265687
 20
277.2379275195
 30
0.0
 40
2.25
  0
CIRCLE
  5
499
330
209
100
AcDbEntity
  8
02___PRT_ALL_AXES
  6
Continuous
 62
     7
100
AcDbCircle
 10
35.8095265687
 20
277.2379275195
 30
0.0
 40
2.25
  0
CIRCLE
  5
49A
330
209
100
AcDbEntity
  8
02___PRT_ALL_AXES
  6
Continuous
 62
     7
100
AcDbCircle
 10
23.3095265687
 20
277.2379275195
 30
0.0
 40
2.25
  0
CIRCLE
  5
49B
330
209
100
AcDbEntity
  8
02___PRT_ALL_AXES
  6
Continuous
 62
     7
100
AcDbCircle
 10
10.8095265687
 20
277.2379275195
 30
0.0
 40
2.25
  0
CIRCLE
  5
49C
330
209
100
AcDbEntity
  8
02___PRT_ALL_AXES
  6
Continuous
 62
     7
100
AcDbCircle
 10
-1.6904734313
 20
277.2379275195
 30
0.0
 40
2.25
  0
CIRCLE
  5
49D
330
209
100
AcDbEntity
  8
02___PRT_ALL_AXES
  6
Continuous
 62
     7
100
AcDbCircle
 10
-14.1904734313
 20
277.2379275195
 30
0.0
 40
2.25
  0
CIRCLE
  5
49E
330
209
100
AcDbEntity
  8
02___PRT_ALL_AXES
  6
Continuous
 62
     7
100
AcDbCircle
 10
-26.6904734313
 20
277.2379275195
 30
0.0
 40
2.25
  0
CIRCLE
  5
49F
330
209
100
AcDbEntity
  8
02___PRT_ALL_AXES
  6
Continuous
 62
     7
100
AcDbCircle
 10
-39.1904734313
 20
277.2379275195
 30
0.0
 40
2.25
  0
ARC
  5
4A0
330
209
100
AcDbEntity
  8
0
  6
Continuous
 62
     7
100
AcDbCircle
 10
-63.1904734313
 20
293.2379275195
 30
0.0
 40
5.0
100
AcDbArc
 50
90.0
 51
180.0
  0
ARC
  5
4A1
330
209
100
AcDbEntity
  8
0
  6
Continuous
 62
     7
100
AcDbCircle
 10
-57.4404734313
 20
289.7379275195
 30
0.0
 40
3.399999999999999
100
AcDbArc
 50
270.0
 51
90.0
  0
ARC
  5
4A2
330
209
100
AcDbEntity
  8
0
  6
Continuous
 62
     7
100
AcDbCircle
 10
-60.9404734313
 20
289.7379275195
 30
0.0
 40
3.399999999999999
100
AcDbArc
 50
90.0
 51
270.0
  0
CIRCLE
  5
4A3
330
209
100
AcDbEntity
  8
02___PRT_ALL_AXES
  6
Continuous
 62
     7
100
AcDbCircle
 10
60.8095265687
 20
289.7379275195
 30
0.0
 40
2.25
  0
CIRCLE
  5
4A4
330
209
100
AcDbEntity
  8
02___PRT_ALL_AXES
  6
Continuous
 62
     7
100
AcDbCircle
 10
35.8095265687
 20
289.7379275195
 30
0.0
 40
2.25
  0
CIRCLE
  5
4A5
330
209
100
AcDbEntity
  8
02___PRT_ALL_AXES
  6
Continuous
 62
     7
100
AcDbCircle
 10
10.8095265687
 20
289.7379275195
 30
0.0
 40
2.25
  0
CIRCLE
  5
4A6
330
209
100
AcDbEntity
  8
02___PRT_ALL_AXES
  6
Continuous
 62
     7
100
AcDbCircle
 10
-14.1904734313
 20
289.7379275195
 30
0.0
 40
2.25
  0
CIRCLE
  5
4A7
330
209
100
AcDbEntity
  8
02___PRT_ALL_AXES
  6
Continuous
 62
     7
100
AcDbCircle
 10
-39.1904734313
 20
289.7379275195
 30
0.0
 40
2.25
  0
CIRCLE
  5
4A8
330
209
100
AcDbEntity
  8
02___PRT_ALL_AXES
  6
Continuous
 62
     7
100
AcDbCircle
 10
198.3095265687
 20
277.2379275195
 30
0.0
 40
2.25
  0
CIRCLE
  5
4A9
330
209
100
AcDbEntity
  8
02___PRT_ALL_AXES
  6
Continuous
 62
     7
100
AcDbCircle
 10
185.8095265687
 20
277.2379275195
 30
0.0
 40
2.25
  0
CIRCLE
  5
4AA
330
209
100
AcDbEntity
  8
02___PRT_ALL_AXES
  6
Continuous
 62
     7
100
AcDbCircle
 10
173.3095265687
 20
277.2379275195
 30
0.0
 40
2.25
  0
CIRCLE
  5
4AB
330
209
100
AcDbEntity
  8
02___PRT_ALL_AXES
  6
Continuous
 62
     7
100
AcDbCircle
 10
160.8095265687
 20
277.2379275195
 30
0.0
 40
2.25
  0
CIRCLE
  5
4AC
330
209
100
AcDbEntity
  8
02___PRT_ALL_AXES
  6
Continuous
 62
     7
100
AcDbCircle
 10
148.3095265687
 20
277.2379275195
 30
0.0
 40
2.25
  0
CIRCLE
  5
4AD
330
209
100
AcDbEntity
  8
02___PRT_ALL_AXES
  6
Continuous
 62
     7
100
AcDbCircle
 10
135.8095265687
 20
277.2379275195
 30
0.0
 40
2.25
  0
CIRCLE
  5
4AE
330
209
100
AcDbEntity
  8
02___PRT_ALL_AXES
  6
Continuous
 62
     7
100
AcDbCircle
 10
123.3095265687
 20
277.2379275195
 30
0.0
 40
2.25
  0
CIRCLE
  5
4AF
330
209
100
AcDbEntity
  8
02___PRT_ALL_AXES
  6
Continuous
 62
     7
100
AcDbCircle
 10
110.8095265687
 20
277.2379275195
 30
0.0
 40
2.25
  0
CIRCLE
  5
4B0
330
209
100
AcDbEntity
  8
02___PRT_ALL_AXES
  6
Continuous
 62
     7
100
AcDbCircle
 10
98.30952656870001
 20
277.2379275195
 30
0.0
 40
2.25
  0
CIRCLE
  5
4B1
330
209
100
AcDbEntity
  8
02___PRT_ALL_AXES
  6
Continuous
 62
     7
100
AcDbCircle
 10
85.8095265687
 20
277.2379275195
 30
0.0
 40
2.25
  0
CIRCLE
  5
4B2
330
209
100
AcDbEntity
  8
02___PRT_ALL_AXES
  6
Continuous
 62
     7
100
AcDbCircle
 10
73.3095265687
 20
277.2379275195
 30
0.0
 40
2.25
  0
CIRCLE
  5
4B3
330
209
100
AcDbEntity
  8
02___PRT_ALL_AXES
  6
Continuous
 62
     7
100
AcDbCircle
 10
185.8095265687
 20
289.7379275195
 30
0.0
 40
2.25
  0
CIRCLE
  5
4B4
330
209
100
AcDbEntity
  8
02___PRT_ALL_AXES
  6
Continuous
 62
     7
100
AcDbCircle
 10
160.8095265687
 20
289.7379275195
 30
0.0
 40
2.25
  0
CIRCLE
  5
4B5
330
209
100
AcDbEntity
  8
02___PRT_ALL_AXES
  6
Continuous
 62
     7
100
AcDbCircle
 10
135.8095265687
 20
289.7379275195
 30
0.0
 40
2.25
  0
CIRCLE
  5
4B6
330
209
100
AcDbEntity
  8
02___PRT_ALL_AXES
  6
Continuous
 62
     7
100
AcDbCircle
 10
110.8095265687
 20
289.7379275195
 30
0.0
 40
2.25
  0
CIRCLE
  5
4B7
330
209
100
AcDbEntity
  8
02___PRT_ALL_AXES
  6
Continuous
 62
     7
100
AcDbCircle
 10
85.8095265687
 20
289.7379275195
 30
0.0
 40
2.25
  0
ARC
  5
4B8
330
209
100
AcDbEntity
  8
0
  6
Continuous
 62
     7
100
AcDbCircle
 10
484.8095265687
 20
261.2379275195
 30
0.0
 40
5.0
100
AcDbArc
 50
270.0
 51
360.0
  0
ARC
  5
4B9
330
209
100
AcDbEntity
  8
0
  6
Continuous
 62
     7
100
AcDbCircle
 10
479.0595265687001
 20
264.7379275195
 30
0.0
 40
3.399999999999999
100
AcDbArc
 50
90.0
 51
270.0
  0
ARC
  5
4BA
330
209
100
AcDbEntity
  8
0
  6
Continuous
 62
     7
100
AcDbCircle
 10
482.5595265687
 20
264.7379275195
 30
0.0
 40
3.399999999999999
100
AcDbArc
 50
270.0
 51
90.0
  0
CIRCLE
  5
4BB
330
209
100
AcDbEntity
  8
02___PRT_ALL_AXES
  6
Continuous
 62
     7
100
AcDbCircle
 10
235.8095265687
 20
264.7379275195
 30
0.0
 40
2.25
  0
CIRCLE
  5
4BC
330
209
100
AcDbEntity
  8
02___PRT_ALL_AXES
  6
Continuous
 62
     7
100
AcDbCircle
 10
260.8095265687
 20
264.7379275195
 30
0.0
 40
2.25
  0
CIRCLE
  5
4BD
330
209
100
AcDbEntity
  8
02___PRT_ALL_AXES
  6
Continuous
 62
     7
100
AcDbCircle
 10
285.8095265687
 20
264.7379275195
 30
0.0
 40
2.25
  0
CIRCLE
  5
4BE
330
209
100
AcDbEntity
  8
02___PRT_ALL_AXES
  6
Continuous
 62
     7
100
AcDbCircle
 10
310.8095265687
 20
264.7379275195
 30
0.0
 40
2.25
  0
CIRCLE
  5
4BF
330
209
100
AcDbEntity
  8
02___PRT_ALL_AXES
  6
Continuous
 62
     7
100
AcDbCircle
 10
335.8095265687
 20
264.7379275195
 30
0.0
 40
2.25
  0
CIRCLE
  5
4C0
330
209
100
AcDbEntity
  8
02___PRT_ALL_AXES
  6
Continuous
 62
     7
100
AcDbCircle
 10
360.8095265687
 20
264.7379275195
 30
0.0
 40
2.25
  0
CIRCLE
  5
4C1
330
209
100
AcDbEntity
  8
02___PRT_ALL_AXES
  6
Continuous
 62
     7
100
AcDbCircle
 10
385.8095265687
 20
264.7379275195
 30
0.0
 40
2.25
  0
CIRCLE
  5
4C2
330
209
100
AcDbEntity
  8
02___PRT_ALL_AXES
  6
Continuous
 62
     7
100
AcDbCircle
 10
410.8095265687
 20
264.7379275195
 30
0.0
 40
2.25
  0
CIRCLE
  5
4C3
330
209
100
AcDbEntity
  8
02___PRT_ALL_AXES
  6
Continuous
 62
     7
100
AcDbCircle
 10
435.8095265687
 20
264.7379275195
 30
0.0
 40
2.25
  0
CIRCLE
  5
4C4
330
209
100
AcDbEntity
  8
02___PRT_ALL_AXES
  6
Continuous
 62
     7
100
AcDbCircle
 10
460.8095265687
 20
264.7379275195
 30
0.0
 40
2.25
  0
CIRCLE
  5
4C5
330
209
100
AcDbEntity
  8
02___PRT_ALL_AXES
  6
Continuous
 62
     7
100
AcDbCircle
 10
210.8095265687
 20
264.7379275195
 30
0.0
 40
2.25
  0
CIRCLE
  5
4C6
330
209
100
AcDbEntity
  8
02___PRT_ALL_AXES
  6
Continuous
 62
     7
100
AcDbCircle
 10
223.3095265687
 20
277.2379275195
 30
0.0
 40
2.25
  0
CIRCLE
  5
4C7
330
209
100
AcDbEntity
  8
02___PRT_ALL_AXES
  6
Continuous
 62
     7
100
AcDbCircle
 10
235.8095265687
 20
277.2379275195
 30
0.0
 40
2.25
  0
CIRCLE
  5
4C8
330
209
100
AcDbEntity
  8
02___PRT_ALL_AXES
  6
Continuous
 62
     7
100
AcDbCircle
 10
248.3095265687
 20
277.2379275195
 30
0.0
 40
2.25
  0
CIRCLE
  5
4C9
330
209
100
AcDbEntity
  8
02___PRT_ALL_AXES
  6
Continuous
 62
     7
100
AcDbCircle
 10
260.8095265687
 20
277.2379275195
 30
0.0
 40
2.25
  0
CIRCLE
  5
4CA
330
209
100
AcDbEntity
  8
02___PRT_ALL_AXES
  6
Continuous
 62
     7
100
AcDbCircle
 10
273.3095265687
 20
277.2379275195
 30
0.0
 40
2.25
  0
CIRCLE
  5
4CB
330
209
100
AcDbEntity
  8
02___PRT_ALL_AXES
  6
Continuous
 62
     7
100
AcDbCircle
 10
285.8095265687
 20
277.2379275195
 30
0.0
 40
2.25
  0
CIRCLE
  5
4CC
330
209
100
AcDbEntity
  8
02___PRT_ALL_AXES
  6
Continuous
 62
     7
100
AcDbCircle
 10
298.3095265687
 20
277.2379275195
 30
0.0
 40
2.25
  0
CIRCLE
  5
4CD
330
209
100
AcDbEntity
  8
02___PRT_ALL_AXES
  6
Continuous
 62
     7
100
AcDbCircle
 10
310.8095265687
 20
277.2379275195
 30
0.0
 40
2.25
  0
CIRCLE
  5
4CE
330
209
100
AcDbEntity
  8
02___PRT_ALL_AXES
  6
Continuous
 62
     7
100
AcDbCircle
 10
323.3095265687
 20
277.2379275195
 30
0.0
 40
2.25
  0
CIRCLE
  5
4CF
330
209
100
AcDbEntity
  8
02___PRT_ALL_AXES
  6
Continuous
 62
     7
100
AcDbCircle
 10
335.8095265687
 20
277.2379275195
 30
0.0
 40
2.25
  0
CIRCLE
  5
4D0
330
209
100
AcDbEntity
  8
02___PRT_ALL_AXES
  6
Continuous
 62
     7
100
AcDbCircle
 10
210.8095265687
 20
277.2379275195
 30
0.0
 40
2.25
  0
CIRCLE
  5
4D1
330
209
100
AcDbEntity
  8
02___PRT_ALL_AXES
  6
Continuous
 62
     7
100
AcDbCircle
 10
235.8095265687
 20
289.7379275195
 30
0.0
 40
2.25
  0
CIRCLE
  5
4D2
330
209
100
AcDbEntity
  8
02___PRT_ALL_AXES
  6
Continuous
 62
     7
100
AcDbCircle
 10
260.8095265687
 20
289.7379275195
 30
0.0
 40
2.25
  0
CIRCLE
  5
4D3
330
209
100
AcDbEntity
  8
02___PRT_ALL_AXES
  6
Continuous
 62
     7
100
AcDbCircle
 10
285.8095265687
 20
289.7379275195
 30
0.0
 40
2.25
  0
CIRCLE
  5
4D4
330
209
100
AcDbEntity
  8
02___PRT_ALL_AXES
  6
Continuous
 62
     7
100
AcDbCircle
 10
310.8095265687
 20
289.7379275195
 30
0.0
 40
2.25
  0
CIRCLE
  5
4D5
330
209
100
AcDbEntity
  8
02___PRT_ALL_AXES
  6
Continuous
 62
     7
100
AcDbCircle
 10
335.8095265687
 20
289.7379275195
 30
0.0
 40
2.25
  0
CIRCLE
  5
4D6
330
209
100
AcDbEntity
  8
02___PRT_ALL_AXES
  6
Continuous
 62
     7
100
AcDbCircle
 10
210.8095265687
 20
289.7379275195
 30
0.0
 40
2.25
  0
CIRCLE
  5
4D7
330
209
100
AcDbEntity
  8
02___PRT_ALL_AXES
  6
Continuous
 62
     7
100
AcDbCircle
 10
360.8095265687
 20
277.2379275195
 30
0.0
 40
2.25
  0
CIRCLE
  5
4D8
330
209
100
AcDbEntity
  8
02___PRT_ALL_AXES
  6
Continuous
 62
     7
100
AcDbCircle
 10
348.3095265687
 20
277.2379275195
 30
0.0
 40
2.25
  0
CIRCLE
  5
4D9
330
209
100
AcDbEntity
  8
02___PRT_ALL_AXES
  6
Continuous
 62
     7
100
AcDbCircle
 10
373.3095265687
 20
277.2379275195
 30
0.0
 40
2.25
  0
CIRCLE
  5
4DA
330
209
100
AcDbEntity
  8
02___PRT_ALL_AXES
  6
Continuous
 62
     7
100
AcDbCircle
 10
385.8095265687
 20
277.2379275195
 30
0.0
 40
2.25
  0
CIRCLE
  5
4DB
330
209
100
AcDbEntity
  8
02___PRT_ALL_AXES
  6
Continuous
 62
     7
100
AcDbCircle
 10
398.3095265687
 20
277.2379275195
 30
0.0
 40
2.25
  0
CIRCLE
  5
4DC
330
209
100
AcDbEntity
  8
02___PRT_ALL_AXES
  6
Continuous
 62
     7
100
AcDbCircle
 10
410.8095265687
 20
277.2379275195
 30
0.0
 40
2.25
  0
CIRCLE
  5
4DD
330
209
100
AcDbEntity
  8
02___PRT_ALL_AXES
  6
Continuous
 62
     7
100
AcDbCircle
 10
423.3095265687
 20
277.2379275195
 30
0.0
 40
2.25
  0
CIRCLE
  5
4DE
330
209
100
AcDbEntity
  8
02___PRT_ALL_AXES
  6
Continuous
 62
     7
100
AcDbCircle
 10
435.8095265687
 20
277.2379275195
 30
0.0
 40
2.25
  0
CIRCLE
  5
4DF
330
209
100
AcDbEntity
  8
02___PRT_ALL_AXES
  6
Continuous
 62
     7
100
AcDbCircle
 10
448.3095265687
 20
277.2379275195
 30
0.0
 40
2.25
  0
CIRCLE
  5
4E0
330
209
100
AcDbEntity
  8
02___PRT_ALL_AXES
  6
Continuous
 62
     7
100
AcDbCircle
 10
460.8095265687
 20
277.2379275195
 30
0.0
 40
2.25
  0
ARC
  5
4E1
330
209
100
AcDbEntity
  8
0
  6
Continuous
 62
     7
100
AcDbCircle
 10
484.8095265687
 20
293.2379275195
 30
0.0
 40
5.0
100
AcDbArc
 50
0.0
 51
90.0
  0
ARC
  5
4E2
330
209
100
AcDbEntity
  8
0
  6
Continuous
 62
     7
100
AcDbCircle
 10
479.0595265687001
 20
289.7379275195
 30
0.0
 40
3.399999999999999
100
AcDbArc
 50
90.0
 51
270.0
  0
ARC
  5
4E3
330
209
100
AcDbEntity
  8
0
  6
Continuous
 62
     7
100
AcDbCircle
 10
482.5595265687
 20
289.7379275195
 30
0.0
 40
3.399999999999999
100
AcDbArc
 50
270.0
 51
90.0
  0
CIRCLE
  5
4E4
330
209
100
AcDbEntity
  8
02___PRT_ALL_AXES
  6
Continuous
 62
     7
100
AcDbCircle
 10
360.8095265687
 20
289.7379275195
 30
0.0
 40
2.25
  0
CIRCLE
  5
4E5
330
209
100
AcDbEntity
  8
02___PRT_ALL_AXES
  6
Continuous
 62
     7
100
AcDbCircle
 10
385.8095265687
 20
289.7379275195
 30
0.0
 40
2.25
  0
CIRCLE
  5
4E6
330
209
100
AcDbEntity
  8
02___PRT_ALL_AXES
  6
Continuous
 62
     7
100
AcDbCircle
 10
410.8095265687
 20
289.7379275195
 30
0.0
 40
2.25
  0
CIRCLE
  5
4E7
330
209
100
AcDbEntity
  8
02___PRT_ALL_AXES
  6
Continuous
 62
     7
100
AcDbCircle
 10
435.8095265687
 20
289.7379275195
 30
0.0
 40
2.25
  0
CIRCLE
  5
4E8
330
209
100
AcDbEntity
  8
02___PRT_ALL_AXES
  6
Continuous
 62
     7
100
AcDbCircle
 10
460.8095265687
 20
289.7379275195
 30
0.0
 40
2.25
  0
ARC
  5
4E9
330
209
100
AcDbEntity
  8
0
  6
Continuous
 62
     7
100
AcDbCircle
 10
551.3837842094
 20
298.2379275195
 30
0.0
 40
3.0
100
AcDbArc
 50
90.0
 51
180.0
  0
ARC
  5
4EA
330
209
100
AcDbEntity
  8
0
  6
Continuous
 62
     7
100
AcDbCircle
 10
551.3837842094
 20
256.2379275195
 30
0.0
 40
3.0
100
AcDbArc
 50
180.0
 51
270.0
  0
ARC
  5
4EB
330
209
100
AcDbEntity
  8
0
  6
Continuous
 62
     7
100
AcDbCircle
 10
568.3837842094
 20
298.2379275195
 30
0.0
 40
3.0
100
AcDbArc
 50
0.0
 51
90.0
  0
ARC
  5
4EC
330
209
100
AcDbEntity
  8
0
  6
Continuous
 62
     7
100
AcDbCircle
 10
568.3837842094
 20
256.2379275195
 30
0.0
 40
3.0
100
AcDbArc
 50
270.0
 51
360.0
  0
ARC
  5
4ED
330
209
100
AcDbEntity
  8
0
  6
Continuous
 62
     7
100
AcDbCircle
 10
551.3837842094
 20
256.2379275195
 30
0.0
 40
1.5
100
AcDbArc
 50
180.0
 51
270.0
  0
ARC
  5
4EE
330
209
100
AcDbEntity
  8
0
  6
Continuous
 62
     7
100
AcDbCircle
 10
568.3837842094
 20
256.2379275195
 30
0.0
 40
1.5
100
AcDbArc
 50
270.0
 51
360.0
  0
ARC
  5
4EF
330
209
100
AcDbEntity
  8
0
  6
Continuous
 62
     7
100
AcDbCircle
 10
568.3837842094
 20
298.2379275195
 30
0.0
 40
1.5
100
AcDbArc
 50
0.0
 51
90.0
  0
ARC
  5
4F0
330
209
100
AcDbEntity
  8
0
  6
Continuous
 62
     7
100
AcDbCircle
 10
551.3837842094
 20
298.2379275195
 30
0.0
 40
1.5
100
AcDbArc
 50
90.0
 51
180.0
  0
ARC
  5
4F1
330
209
100
AcDbEntity
  8
0
  6
Continuous
 62
     7
100
AcDbCircle
 10
-44.44783274419999
 20
138.2545401169
 30
0.0
 40
3.0
100
AcDbArc
 50
90.0
 51
135.0
  0
ARC
  5
4F2
330
209
100
AcDbEntity
  8
0
  6
Continuous
 62
     7
100
AcDbCircle
 10
-47.81179377489999
 20
141.2545401169
 30
0.0
 40
3.0
100
AcDbArc
 50
270.0
 51
315.0
  0
ARC
  5
4F3
330
209
100
AcDbEntity
  8
0
  6
Continuous
 62
     7
100
AcDbCircle
 10
-47.81179377489999
 20
141.2545401169
 30
0.0
 40
1.5
100
AcDbArc
 50
270.0
 51
315.0
  0
ARC
  5
4F4
330
209
100
AcDbEntity
  8
0
  6
Continuous
 62
     7
100
AcDbCircle
 10
-44.44783274419999
 20
138.2545401169
 30
0.0
 40
1.5
100
AcDbArc
 50
90.0
 51
135.0
  0
CIRCLE
  5
4F5
330
209
100
AcDbEntity
  8
02___PRT_ALL_AXES
  6
Continuous
 62
     7
100
AcDbCircle
 10
185.8095265687
 20
151.2545401169
 30
0.0
 40
2.25
  0
CIRCLE
  5
4F6
330
209
100
AcDbEntity
  8
02___PRT_ALL_AXES
  6
Continuous
 62
     7
100
AcDbCircle
 10
160.8095265687
 20
151.2545401169
 30
0.0
 40
2.25
  0
CIRCLE
  5
4F7
330
209
100
AcDbEntity
  8
02___PRT_ALL_AXES
  6
Continuous
 62
     7
100
AcDbCircle
 10
135.8095265687
 20
151.2545401169
 30
0.0
 40
2.25
  0
CIRCLE
  5
4F8
330
209
100
AcDbEntity
  8
02___PRT_ALL_AXES
  6
Continuous
 62
     7
100
AcDbCircle
 10
110.8095265687
 20
151.2545401169
 30
0.0
 40
2.25
  0
CIRCLE
  5
4F9
330
209
100
AcDbEntity
  8
02___PRT_ALL_AXES
  6
Continuous
 62
     7
100
AcDbCircle
 10
85.8095265687
 20
151.2545401169
 30
0.0
 40
2.25
  0
CIRCLE
  5
4FA
330
209
100
AcDbEntity
  8
0
  6
Continuous
 62
     7
100
AcDbCircle
 10
60.8095265687
 20
151.2545401169
 30
0.0
 40
2.25
  0
CIRCLE
  5
4FB
330
209
100
AcDbEntity
  8
02___PRT_ALL_AXES
  6
Continuous
 62
     7
100
AcDbCircle
 10
35.8095265687
 20
151.2545401169
 30
0.0
 40
2.25
  0
CIRCLE
  5
4FC
330
209
100
AcDbEntity
  8
02___PRT_ALL_AXES
  6
Continuous
 62
     7
100
AcDbCircle
 10
10.8095265687
 20
151.2545401169
 30
0.0
 40
2.25
  0
CIRCLE
  5
4FD
330
209
100
AcDbEntity
  8
02___PRT_ALL_AXES
  6
Continuous
 62
     7
100
AcDbCircle
 10
-14.1904734313
 20
151.2545401169
 30
0.0
 40
2.25
  0
CIRCLE
  5
4FE
330
209
100
AcDbEntity
  8
02___PRT_ALL_AXES
  6
Continuous
 62
     7
100
AcDbCircle
 10
-39.1904734313
 20
151.2545401169
 30
0.0
 40
2.25
  0
ARC
  5
4FF
330
209
100
AcDbEntity
  8
0
  6
Continuous
 62
     7
100
AcDbCircle
 10
466.0668858816
 20
138.2545401169
 30
0.0
 40
3.0
100
AcDbArc
 50
45.0
 51
90.0
  0
ARC
  5
500
330
209
100
AcDbEntity
  8
0
  6
Continuous
 62
     7
100
AcDbCircle
 10
469.4308469123
 20
141.2545401169
 30
0.0
 40
3.0
100
AcDbArc
 50
225.0
 51
270.0
  0
ARC
  5
501
330
209
100
AcDbEntity
  8
0
  6
Continuous
 62
     7
100
AcDbCircle
 10
469.4308469123
 20
141.2545401169
 30
0.0
 40
1.5
100
AcDbArc
 50
225.0
 51
270.0
  0
ARC
  5
502
330
209
100
AcDbEntity
  8
0
  6
Continuous
 62
     7
100
AcDbCircle
 10
466.0668858816
 20
138.2545401169
 30
0.0
 40
1.5
100
AcDbArc
 50
45.0
 51
90.0
  0
CIRCLE
  5
503
330
209
100
AcDbEntity
  8
02___PRT_ALL_AXES
  6
Continuous
 62
     7
100
AcDbCircle
 10
235.8095265687
 20
151.2545401169
 30
0.0
 40
2.25
  0
CIRCLE
  5
504
330
209
100
AcDbEntity
  8
02___PRT_ALL_AXES
  6
Continuous
 62
     7
100
AcDbCircle
 10
260.8095265687
 20
151.2545401169
 30
0.0
 40
2.25
  0
CIRCLE
  5
505
330
209
100
AcDbEntity
  8
02___PRT_ALL_AXES
  6
Continuous
 62
     7
100
AcDbCircle
 10
285.8095265687
 20
151.2545401169
 30
0.0
 40
2.25
  0
CIRCLE
  5
506
330
209
100
AcDbEntity
  8
02___PRT_ALL_AXES
  6
Continuous
 62
     7
100
AcDbCircle
 10
310.8095265687
 20
151.2545401169
 30
0.0
 40
2.25
  0
CIRCLE
  5
507
330
209
100
AcDbEntity
  8
02___PRT_ALL_AXES
  6
Continuous
 62
     7
100
AcDbCircle
 10
335.8095265687
 20
151.2545401169
 30
0.0
 40
2.25
  0
CIRCLE
  5
508
330
209
100
AcDbEntity
  8
0
  6
Continuous
 62
     7
100
AcDbCircle
 10
360.8095265687
 20
151.2545401169
 30
0.0
 40
2.25
  0
CIRCLE
  5
509
330
209
100
AcDbEntity
  8
02___PRT_ALL_AXES
  6
Continuous
 62
     7
100
AcDbCircle
 10
385.8095265687
 20
151.2545401169
 30
0.0
 40
2.25
  0
CIRCLE
  5
50A
330
209
100
AcDbEntity
  8
02___PRT_ALL_AXES
  6
Continuous
 62
     7
100
AcDbCircle
 10
410.8095265687
 20
151.2545401169
 30
0.0
 40
2.25
  0
CIRCLE
  5
50B
330
209
100
AcDbEntity
  8
02___PRT_ALL_AXES
  6
Continuous
 62
     7
100
AcDbCircle
 10
435.8095265687
 20
151.2545401169
 30
0.0
 40
2.25
  0
CIRCLE
  5
50C
330
209
100
AcDbEntity
  8
02___PRT_ALL_AXES
  6
Continuous
 62
     7
100
AcDbCircle
 10
210.8095265687
 20
151.2545401169
 30
0.0
 40
2.25
  0
CIRCLE
  5
50D
330
209
100
AcDbEntity
  8
02___PRT_ALL_AXES
  6
Continuous
 62
     7
100
AcDbCircle
 10
460.8095265687
 20
151.2545401169
 30
0.0
 40
2.25
  0
LINE
  5
B47
330
209
100
AcDbEntity
  8
0
  6
Continuous
 62
     7
100
AcDbLine
 10
-72.34485380744684
 20
404.523424239895
 30
0.0
 11
-72.34485380744684
 21
376.5234242398952
 31
0.0
  0
LINE
  5
B48
330
209
100
AcDbEntity
  8
0
  6
Continuous
 62
     7
100
AcDbLine
 10
-67.34485383724686
 20
397.5234242398952
 30
0.0
 11
-67.34485383724686
 21
383.5234242398952
 31
0.0
  0
LINE
  5
B49
330
209
100
AcDbEntity
  8
0
  6
Continuous
 62
     7
100
AcDbLine
 10
-65.48320179084685
 20
385.1782260704954
 30
0.0
 11
-65.48320179084685
 21
390.3776886779953
 31
0.0
  0
LINE
  5
B4A
330
209
100
AcDbEntity
  8
0
  6
Continuous
 62
     7
100
AcDbLine
 10
-65.48320179084685
 20
392.0324908215953
 30
0.0
 11
-65.48320179084685
 21
395.8686225134952
 31
0.0
  0
LINE
  5
B4B
330
209
100
AcDbEntity
  8
0
  6
Continuous
 62
     7
100
AcDbLine
 10
-59.06144182784685
 20
390.3776886779953
 30
0.0
 11
-59.06144182784685
 21
392.0324908215953
 31
0.0
  0
LINE
  5
B4C
330
209
100
AcDbEntity
  8
0
  6
Continuous
 62
     7
100
AcDbLine
 10
-58.59132759674686
 20
383.5234242398952
 30
0.0
 11
-58.59132759674686
 21
385.1782260704954
 31
0.0
  0
LINE
  5
B4D
330
209
100
AcDbEntity
  8
0
  6
Continuous
 62
     7
100
AcDbLine
 10
-58.59132759674686
 20
395.8686225134952
 30
0.0
 11
-58.59132759674686
 21
397.5234242398952
 31
0.0
  0
LINE
  5
B4E
330
209
100
AcDbEntity
  8
0
  6
Continuous
 62
     7
100
AcDbLine
 10
-56.54163031674685
 20
397.5234242398952
 30
0.0
 11
-56.54163031674685
 21
383.5234242398952
 31
0.0
  0
LINE
  5
B4F
330
209
100
AcDbEntity
  8
0
  6
Continuous
 62
     7
100
AcDbLine
 10
-54.67997889614685
 20
385.1782260704954
 30
0.0
 11
-54.67997889614685
 21
397.5234242398952
 31
0.0
  0
LINE
  5
B50
330
209
100
AcDbEntity
  8
0
  6
Continuous
 62
     7
100
AcDbLine
 10
-2.344853807446867
 20
376.5234242398952
 30
0.0
 11
-72.34485380744684
 21
376.5234242398952
 31
0.0
  0
LINE
  5
B51
330
209
100
AcDbEntity
  8
0
  6
Continuous
 62
     7
100
AcDbLine
 10
-48.42745928864686
 20
383.5234242398952
 30
0.0
 11
-48.42745928864686
 21
385.1782260704954
 31
0.0
  0
LINE
  5
B52
330
209
100
AcDbEntity
  8
0
  6
Continuous
 62
     7
100
AcDbLine
 10
-46.96070342164684
 20
397.5234242398952
 30
0.0
 11
-46.96070342164684
 21
383.5234242398952
 31
0.0
  0
LINE
  5
B53
330
209
100
AcDbEntity
  8
0
  6
Continuous
 62
     7
100
AcDbLine
 10
-45.09905200104685
 20
385.1124101448953
 30
0.0
 11
-45.09905200104685
 21
390.2836661655952
 31
0.0
  0
LINE
  5
B54
330
209
100
AcDbEntity
  8
0
  6
Continuous
 62
     7
100
AcDbLine
 10
-45.09905200104685
 20
391.8350430447953
 30
0.0
 11
-45.09905200104685
 21
395.9344384390953
 31
0.0
  0
LINE
  5
B55
330
209
100
AcDbEntity
  8
0
  6
Continuous
 62
     7
100
AcDbLine
 10
-67.34485383724686
 20
383.5234242398952
 30
0.0
 11
-58.59132759674686
 21
383.5234242398952
 31
0.0
  0
LINE
  5
B56
330
209
100
AcDbEntity
  8
0
  6
Continuous
 62
     7
100
AcDbLine
 10
-56.54163031674685
 20
383.5234242398952
 30
0.0
 11
-48.42745928864686
 21
383.5234242398952
 31
0.0
  0
LINE
  5
B57
330
209
100
AcDbEntity
  8
0
  6
Continuous
 62
     7
100
AcDbLine
 10
-46.96070342164684
 20
383.5234242398952
 30
0.0
 11
-42.94592862224686
 21
383.5234242398952
 31
0.0
  0
LINE
  5
B58
330
209
100
AcDbEntity
  8
0
  6
Continuous
 62
     7
100
AcDbLine
 10
-11.06115057074684
 20
383.5234242398952
 30
0.0
 11
-8.06115057074686
 21
383.5234242398952
 31
0.0
  0
LINE
  5
B59
330
209
100
AcDbEntity
  8
0
  6
Continuous
 62
     7
100
AcDbLine
 10
-43.58528404334685
 20
385.1124101448953
 30
0.0
 11
-45.09905200104685
 21
385.1124101448953
 31
0.0
  0
LINE
  5
B5A
330
209
100
AcDbEntity
  8
0
  6
Continuous
 62
     7
100
AcDbLine
 10
-48.42745928864686
 20
385.1782260704954
 30
0.0
 11
-54.67997889614685
 21
385.1782260704954
 31
0.0
  0
LINE
  5
B5B
330
209
100
AcDbEntity
  8
0
  6
Continuous
 62
     7
100
AcDbLine
 10
-58.59132759674686
 20
385.1782260704954
 30
0.0
 11
-65.48320179084685
 21
385.1782260704954
 31
0.0
  0
LINE
  5
B5C
330
209
100
AcDbEntity
  8
0
  6
Continuous
 62
     7
100
AcDbLine
 10
-40.08763389684686
 20
391.2991128880951
 30
0.0
 11
-40.08763389684686
 21
391.3743307311953
 31
0.0
  0
LINE
  5
B5D
330
209
100
AcDbEntity
  8
0
  6
Continuous
 62
     7
100
AcDbLine
 10
-45.09905200104685
 20
390.2836661655952
 30
0.0
 11
-42.98353796104684
 21
390.2836661655952
 31
0.0
  0
LINE
  5
B5E
330
209
100
AcDbEntity
  8
0
  6
Continuous
 62
     7
100
AcDbLine
 10
-65.48320179084685
 20
390.3776886779953
 30
0.0
 11
-59.06144182784685
 21
390.3776886779953
 31
0.0
  0
LINE
  5
B5F
330
209
100
AcDbEntity
  8
0
  6
Continuous
 62
     7
100
AcDbLine
 10
-42.98353796104684
 20
391.8350430447953
 30
0.0
 11
-45.09905200104685
 21
391.8350430447953
 31
0.0
  0
LINE
  5
B60
330
209
100
AcDbEntity
  8
0
  6
Continuous
 62
     7
100
AcDbLine
 10
-59.06144182784685
 20
392.0324908215953
 30
0.0
 11
-65.48320179084685
 21
392.0324908215953
 31
0.0
  0
LINE
  5
B61
330
209
100
AcDbEntity
  8
0
  6
Continuous
 62
     7
100
AcDbLine
 10
-65.48320179084685
 20
395.8686225134952
 30
0.0
 11
-58.59132759674686
 21
395.8686225134952
 31
0.0
  0
LINE
  5
B62
330
209
100
AcDbEntity
  8
0
  6
Continuous
 62
     7
100
AcDbLine
 10
-45.09905200104685
 20
395.9344384390953
 30
0.0
 11
-43.31261758904684
 21
395.9344384390953
 31
0.0
  0
LINE
  5
B63
330
209
100
AcDbEntity
  8
0
  6
Continuous
 62
     7
100
AcDbLine
 10
-21.42779724994683
 20
397.5234242398952
 30
0.0
 11
-24.42779724994685
 21
397.5234242398952
 31
0.0
  0
LINE
  5
B64
330
209
100
AcDbEntity
  8
0
  6
Continuous
 62
     7
100
AcDbLine
 10
-43.24680166344686
 20
397.5234242398952
 30
0.0
 11
-46.96070342164684
 21
397.5234242398952
 31
0.0
  0
LINE
  5
B65
330
209
100
AcDbEntity
  8
0
  6
Continuous
 62
     7
100
AcDbLine
 10
-54.67997889614685
 20
397.5234242398952
 30
0.0
 11
-56.54163031674685
 21
397.5234242398952
 31
0.0
  0
LINE
  5
B66
330
209
100
AcDbEntity
  8
0
  6
Continuous
 62
     7
100
AcDbLine
 10
-58.59132759674686
 20
397.5234242398952
 30
0.0
 11
-67.34485383724686
 21
397.5234242398952
 31
0.0
  0
LINE
  5
B67
330
209
100
AcDbEntity
  8
0
  6
Continuous
 62
     7
100
AcDbLine
 10
-8.144094013246828
 20
402.5234242398951
 30
0.0
 11
-16.36991357974686
 21
392.7457971059952
 31
0.0
  0
LINE
  5
B68
330
209
100
AcDbEntity
  8
0
  6
Continuous
 62
     7
100
AcDbLine
 10
-72.34485380744684
 20
404.523424239895
 30
0.0
 11
-2.344853807446867
 21
404.523424239895
 31
0.0
  0
LINE
  5
B69
330
209
100
AcDbEntity
  8
0
  6
Continuous
 62
     7
100
AcDbLine
 10
-24.42779724994685
 20
397.5234242398952
 30
0.0
 11
-18.90165710954689
 21
387.9234242398952
 31
0.0
  0
LINE
  5
B6A
330
209
100
AcDbEntity
  8
0
  6
Continuous
 62
     7
100
AcDbLine
 10
-24.34485380744687
 20
378.5234242398952
 30
0.0
 11
-18.90165710954689
 21
387.9234242398952
 31
0.0
  0
LINE
  5
B6B
330
209
100
AcDbEntity
  8
0
  6
Continuous
 62
     7
100
AcDbLine
 10
-24.34485380744687
 20
378.5234242398952
 30
0.0
 11
-16.11903424104683
 21
388.3010513737954
 31
0.0
  0
LINE
  5
B6C
330
209
100
AcDbEntity
  8
0
  6
Continuous
 62
     7
100
AcDbLine
 10
-16.11903424104683
 20
388.3010513737954
 30
0.0
 11
-21.42779724994683
 21
397.5234242398952
 31
0.0
  0
LINE
  5
B6D
330
209
100
AcDbEntity
  8
0
  6
Continuous
 62
     7
100
AcDbLine
 10
-13.58729071124685
 20
393.1234242398952
 30
0.0
 11
-8.144094013246828
 21
402.5234242398951
 31
0.0
  0
LINE
  5
B6E
330
209
100
AcDbEntity
  8
0
  6
Continuous
 62
     7
100
AcDbLine
 10
-16.36991357974686
 20
392.7457971059952
 30
0.0
 11
-11.06115057074684
 21
383.5234242398952
 31
0.0
  0
LINE
  5
B6F
330
209
100
AcDbEntity
  8
0
  6
Continuous
 62
     7
100
AcDbLine
 10
-8.06115057074686
 20
383.5234242398952
 30
0.0
 11
-13.58729071124685
 21
393.1234242398952
 31
0.0
  0
LINE
  5
B70
330
209
100
AcDbEntity
  8
0
  6
Continuous
 62
     7
100
AcDbLine
 10
-2.344853807446867
 20
376.5234242398952
 30
0.0
 11
-2.344853807446867
 21
404.523424239895
 31
0.0
  0
SPLINE
  5
B71
330
209
100
AcDbEntity
  8
0
  6
Continuous
 62
     7
100
AcDbSpline
210
0.0
220
0.0
230
1.0
 70
     8
 71
     3
 72
     8
 73
     4
 74
     0
 42
0.0000001
 43
0.0000000001
 40
0.0
 40
0.0
 40
0.0
 40
0.0
 40
1.0
 40
1.0
 40
1.0
 40
1.0
 10
-37.46439628704685
 20
387.8202678281953
 30
0.0
 10
-37.46439628704685
 20
388.7134846169953
 30
0.0
 10
-37.69945507144687
 20
389.4562648851953
 30
0.0
 10
-38.15374467404684
 20
390.0557408208953
 30
0.0
  0
SPLINE
  5
B72
330
209
100
AcDbEntity
  8
0
  6
Continuous
 62
     7
100
AcDbSpline
210
0.0
220
0.0
230
1.0
 70
     8
 71
     3
 72
     8
 73
     4
 74
     0
 42
0.0000001
 43
0.0000000001
 40
0.0
 40
0.0
 40
0.0
 40
0.0
 40
1.0
 40
1.0
 40
1.0
 40
1.0
 10
-38.15374467404684
 20
390.0557408208953
 30
0.0
 10
-38.61147527794686
 20
390.6597574669953
 30
0.0
 10
-39.26023178204685
 20
391.0734576899952
 30
0.0
 10
-40.08763389684686
 20
391.2991128880951
 30
0.0
  0
SPLINE
  5
B73
330
209
100
AcDbEntity
  8
0
  6
Continuous
 62
     7
100
AcDbSpline
210
0.0
220
0.0
230
1.0
 70
     8
 71
     3
 72
     8
 73
     4
 74
     0
 42
0.0000001
 43
0.0000000001
 40
0.0
 40
0.0
 40
0.0
 40
0.0
 40
1.0
 40
1.0
 40
1.0
 40
1.0
 10
-40.08763389684686
 20
391.3743307311953
 30
0.0
 10
-39.47648506264686
 20
391.6658018548952
 30
0.0
 10
-38.99696807964686
 20
392.0701001603951
 30
0.0
 10
-38.64691848804685
 20
392.5951758071953
 30
0.0
  0
SPLINE
  5
B74
330
209
100
AcDbEntity
  8
0
  6
Continuous
 62
     7
100
AcDbSpline
210
0.0
220
0.0
230
1.0
 70
     8
 71
     3
 72
     8
 73
     4
 74
     0
 42
0.0000001
 43
0.0000000001
 40
0.0
 40
0.0
 40
0.0
 40
0.0
 40
1.0
 40
1.0
 40
1.0
 40
1.0
 10
-38.64691848804685
 20
392.5951758071953
 30
0.0
 10
-38.30120115374685
 20
393.1137530524953
 30
0.0
 10
-38.12255554294686
 20
393.7060972172953
 30
0.0
 10
-38.12255554294686
 20
394.3642573077952
 30
0.0
  0
SPLINE
  5
B75
330
209
100
AcDbEntity
  8
0
  6
Continuous
 62
     7
100
AcDbSpline
210
0.0
220
0.0
230
1.0
 70
     8
 71
     3
 72
     8
 73
     4
 74
     0
 42
0.0000001
 43
0.0000000001
 40
0.0
 40
0.0
 40
0.0
 40
0.0
 40
1.0
 40
1.0
 40
1.0
 40
1.0
 10
-38.12255554294686
 20
394.3642573077952
 30
0.0
 10
-38.12255554294686
 20
394.9471987206952
 30
0.0
 10
-38.24478798014686
 20
395.4643242079953
 30
0.0
 10
-38.47409619144686
 20
395.8948623115952
 30
0.0
  0
SPLINE
  5
B76
330
209
100
AcDbEntity
  8
0
  6
Continuous
 62
     7
100
AcDbSpline
210
0.0
220
0.0
230
1.0
 70
     8
 71
     3
 72
     8
 73
     4
 74
     0
 42
0.0000001
 43
0.0000000001
 40
0.0
 40
0.0
 40
0.0
 40
0.0
 40
1.0
 40
1.0
 40
1.0
 40
1.0
 10
-38.47409619144686
 20
395.8948623115952
 30
0.0
 10
-38.70549945934686
 20
396.3293339926953
 30
0.0
 10
-39.07218675714686
 20
396.6866210419953
 30
0.0
 10
-39.57215473584684
 20
396.9562112689953
 30
0.0
  0
SPLINE
  5
B77
330
209
100
AcDbEntity
  8
0
  6
Continuous
 62
     7
100
AcDbSpline
210
0.0
220
0.0
230
1.0
 70
     8
 71
     3
 72
     8
 73
     4
 74
     0
 42
0.0000001
 43
0.0000000001
 40
0.0
 40
0.0
 40
0.0
 40
0.0
 40
1.0
 40
1.0
 40
1.0
 40
1.0
 10
-39.57215473584684
 20
396.9562112689953
 30
0.0
 10
-40.03122072314685
 20
397.2037465293953
 30
0.0
 10
-40.51073770624685
 20
397.3541830498951
 30
0.0
 10
-41.00905852414686
 20
397.4199989754954
 30
0.0
  0
SPLINE
  5
B78
330
209
100
AcDbEntity
  8
0
  6
Continuous
 62
     7
100
AcDbSpline
210
0.0
220
0.0
230
1.0
 70
     8
 71
     3
 72
     8
 73
     4
 74
     0
 42
0.0000001
 43
0.0000000001
 40
0.0
 40
0.0
 40
0.0
 40
0.0
 40
1.0
 40
1.0
 40
1.0
 40
1.0
 10
-41.00905852414686
 20
397.4199989754954
 30
0.0
 10
-41.50737934214687
 20
397.4858149010953
 30
0.0
 10
-42.25016002754687
 20
397.5234242398952
 30
0.0
 10
-43.24680166344686
 20
397.5234242398952
 30
0.0
  0
SPLINE
  5
B79
330
209
100
AcDbEntity
  8
0
  6
Continuous
 62
     7
100
AcDbSpline
210
0.0
220
0.0
230
1.0
 70
     8
 71
     3
 72
     8
 73
     4
 74
     0
 42
0.0000001
 43
0.0000000001
 40
0.0
 40
0.0
 40
0.0
 40
0.0
 40
1.0
 40
1.0
 40
1.0
 40
1.0
 10
-42.94592862224686
 20
383.5234242398952
 30
0.0
 10
-41.99629740814684
 20
383.5234242398952
 30
0.0
 10
-41.21590905284683
 20
383.6080447891952
 30
0.0
 10
-40.61416136364685
 20
383.7772861148952
 30
0.0
  0
SPLINE
  5
B7A
330
209
100
AcDbEntity
  8
0
  6
Continuous
 62
     7
100
AcDbSpline
210
0.0
220
0.0
230
1.0
 70
     8
 71
     3
 72
     8
 73
     4
 74
     0
 42
0.0000001
 43
0.0000000001
 40
0.0
 40
0.0
 40
0.0
 40
0.0
 40
1.0
 40
1.0
 40
1.0
 40
1.0
 10
-40.61416136364685
 20
383.7772861148952
 30
0.0
 10
-40.01241521934686
 20
383.9465270061952
 30
0.0
 10
-39.44828014474686
 20
384.2474000472953
 30
0.0
 10
-38.91946262784685
 20
384.6581314704953
 30
0.0
  0
SPLINE
  5
B7B
330
209
100
AcDbEntity
  8
0
  6
Continuous
 62
     7
100
AcDbSpline
210
0.0
220
0.0
230
1.0
 70
     8
 71
     3
 72
     8
 73
     4
 74
     0
 42
0.0000001
 43
0.0000000001
 40
0.0
 40
0.0
 40
0.0
 40
0.0
 40
1.0
 40
1.0
 40
1.0
 40
1.0
 10
-38.91946262784685
 20
384.6581314704953
 30
0.0
 10
-38.47984342674687
 20
384.9995827544953
 30
0.0
 10
-38.12255554294686
 20
385.4414900858953
 30
0.0
 10
-37.85742306774685
 20
385.9764899949952
 30
0.0
  0
SPLINE
  5
B7C
330
209
100
AcDbEntity
  8
0
  6
Continuous
 62
     7
100
AcDbSpline
210
0.0
220
0.0
230
1.0
 70
     8
 71
     3
 72
     8
 73
     4
 74
     0
 42
0.0000001
 43
0.0000000001
 40
0.0
 40
0.0
 40
0.0
 40
0.0
 40
1.0
 40
1.0
 40
1.0
 40
1.0
 10
-37.85742306774685
 20
385.9764899949952
 30
0.0
 10
-37.59602813824685
 20
386.5039480645953
 30
0.0
 10
-37.46439628704685
 20
387.1244988162953
 30
0.0
 10
-37.46439628704685
 20
387.8202678281953
 30
0.0
  0
SPLINE
  5
B7D
330
209
100
AcDbEntity
  8
0
  6
Continuous
 62
     7
100
AcDbSpline
210
0.0
220
0.0
230
1.0
 70
     8
 71
     3
 72
     8
 73
     4
 74
     0
 42
0.0000001
 43
0.0000000001
 40
0.0
 40
0.0
 40
0.0
 40
0.0
 40
1.0
 40
1.0
 40
1.0
 40
1.0
 10
-40.05942897894684
 20
394.1009927708953
 30
0.0
 10
-40.05942897894684
 20
393.6684878785953
 30
0.0
 10
-40.12524490454683
 20
393.3017989117952
 30
0.0
 10
-40.24051742124686
 20
393.0113099925953
 30
0.0
  0
SPLINE
  5
B7E
330
209
100
AcDbEntity
  8
0
  6
Continuous
 62
     7
100
AcDbSpline
210
0.0
220
0.0
230
1.0
 70
     8
 71
     3
 72
     8
 73
     4
 74
     0
 42
0.0000001
 43
0.0000000001
 40
0.0
 40
0.0
 40
0.0
 40
0.0
 40
1.0
 40
1.0
 40
1.0
 40
1.0
 10
-40.24051742124686
 20
393.0113099925953
 30
0.0
 10
-40.36030035114684
 20
392.7094547469954
 30
0.0
 10
-40.55774812794686
 20
392.4743976313952
 30
0.0
 10
-40.84036265084685
 20
392.2966242278953
 30
0.0
  0
SPLINE
  5
B7F
330
209
100
AcDbEntity
  8
0
  6
Continuous
 62
     7
100
AcDbSpline
210
0.0
220
0.0
230
1.0
 70
     8
 71
     3
 72
     8
 73
     4
 74
     0
 42
0.0000001
 43
0.0000000001
 40
0.0
 40
0.0
 40
0.0
 40
0.0
 40
1.0
 40
1.0
 40
1.0
 40
1.0
 10
-40.84036265084685
 20
392.2966242278953
 30
0.0
 10
-41.14069037534686
 20
392.1077086646953
 30
0.0
 10
-41.42275791264686
 20
391.9760768134953
 30
0.0
 10
-41.69560954804686
 20
391.9205817672953
 30
0.0
  0
SPLINE
  5
B80
330
209
100
AcDbEntity
  8
0
  6
Continuous
 62
     7
100
AcDbSpline
210
0.0
220
0.0
230
1.0
 70
     8
 71
     3
 72
     8
 73
     4
 74
     0
 42
0.0000001
 43
0.0000000001
 40
0.0
 40
0.0
 40
0.0
 40
0.0
 40
1.0
 40
1.0
 40
1.0
 40
1.0
 10
-41.69560954804686
 20
391.9205817672953
 30
0.0
 10
-41.97749357324685
 20
391.8632496316952
 30
0.0
 10
-42.40059571364684
 20
391.8350430447953
 30
0.0
 10
-42.98353796104684
 20
391.8350430447953
 30
0.0
  0
SPLINE
  5
B81
330
209
100
AcDbEntity
  8
0
  6
Continuous
 62
     7
100
AcDbSpline
210
0.0
220
0.0
230
1.0
 70
     8
 71
     3
 72
     8
 73
     4
 74
     0
 42
0.0000001
 43
0.0000000001
 40
0.0
 40
0.0
 40
0.0
 40
0.0
 40
1.0
 40
1.0
 40
1.0
 40
1.0
 10
-43.31261758904684
 20
395.9344384390953
 30
0.0
 10
-42.66385941604686
 20
395.9344384390953
 30
0.0
 10
-42.15613584614684
 20
395.9156337697953
 30
0.0
 10
-41.78009381344685
 20
395.8775532857953
 30
0.0
  0
SPLINE
  5
B82
330
209
100
AcDbEntity
  8
0
  6
Continuous
 62
     7
100
AcDbSpline
210
0.0
220
0.0
230
1.0
 70
     8
 71
     3
 72
     8
 73
     4
 74
     0
 42
0.0000001
 43
0.0000000001
 40
0.0
 40
0.0
 40
0.0
 40
0.0
 40
1.0
 40
1.0
 40
1.0
 40
1.0
 10
-41.78009381344685
 20
395.8775532857953
 30
0.0
 10
-41.41335682964686
 20
395.8404150921952
 30
0.0
 10
-41.07487444974686
 20
395.7369906622953
 30
0.0
 10
-40.77717037264686
 20
395.5624740550953
 30
0.0
  0
SPLINE
  5
B83
330
209
100
AcDbEntity
  8
0
  6
Continuous
 62
     7
100
AcDbSpline
210
0.0
220
0.0
230
1.0
 70
     8
 71
     3
 72
     8
 73
     4
 74
     0
 42
0.0000001
 43
0.0000000001
 40
0.0
 40
0.0
 40
0.0
 40
0.0
 40
1.0
 40
1.0
 40
1.0
 40
1.0
 10
-40.77717037264686
 20
395.5624740550953
 30
0.0
 10
-40.52954321004686
 20
395.4173129517951
 30
0.0
 10
-40.34149484734685
 20
395.2198651749953
 30
0.0
 10
-40.22866834124686
 20
394.9754053807951
 30
0.0
  0
SPLINE
  5
B84
330
209
100
AcDbEntity
  8
0
  6
Continuous
 62
     7
100
AcDbSpline
210
0.0
220
0.0
230
1.0
 70
     8
 71
     3
 72
     8
 73
     4
 74
     0
 42
0.0000001
 43
0.0000000001
 40
0.0
 40
0.0
 40
0.0
 40
0.0
 40
1.0
 40
1.0
 40
1.0
 40
1.0
 10
-40.22866834124686
 20
394.9754053807951
 30
0.0
 10
-40.11584215264686
 20
394.7309462744954
 30
0.0
 10
-40.05942897894684
 20
394.4394751507953
 30
0.0
 10
-40.05942897894684
 20
394.1009927708953
 30
0.0
  0
SPLINE
  5
B85
330
209
100
AcDbEntity
  8
0
  6
Continuous
 62
     7
100
AcDbSpline
210
0.0
220
0.0
230
1.0
 70
     8
 71
     3
 72
     8
 73
     4
 74
     0
 42
0.0000001
 43
0.0000000001
 40
0.0
 40
0.0
 40
0.0
 40
0.0
 40
1.0
 40
1.0
 40
1.0
 40
1.0
 10
-39.40126638514686
 20
387.7450495679953
 30
0.0
 10
-39.40126638514686
 20
387.2467283327952
 30
0.0
 10
-39.48588781454684
 20
386.8424302358953
 30
0.0
 10
-39.64938464284685
 20
386.5341216349952
 30
0.0
  0
SPLINE
  5
B86
330
209
100
AcDbEntity
  8
0
  6
Continuous
 62
     7
100
AcDbSpline
210
0.0
220
0.0
230
1.0
 70
     8
 71
     3
 72
     8
 73
     4
 74
     0
 42
0.0000001
 43
0.0000000001
 40
0.0
 40
0.0
 40
0.0
 40
0.0
 40
1.0
 40
1.0
 40
1.0
 40
1.0
 10
-39.64938464284685
 20
386.5341216349952
 30
0.0
 10
-39.81496744254686
 20
386.2218794841951
 30
0.0
 10
-40.06882839304686
 20
385.9492134470952
 30
0.0
 10
-40.41823300574684
 20
385.7069601059952
 30
0.0
  0
SPLINE
  5
B87
330
209
100
AcDbEntity
  8
0
  6
Continuous
 62
     7
100
AcDbSpline
210
0.0
220
0.0
230
1.0
 70
     8
 71
     3
 72
     8
 73
     4
 74
     0
 42
0.0000001
 43
0.0000000001
 40
0.0
 40
0.0
 40
0.0
 40
0.0
 40
1.0
 40
1.0
 40
1.0
 40
1.0
 10
-40.41823300574684
 20
385.7069601059952
 30
0.0
 10
-40.77400140864685
 20
385.4602945465953
 30
0.0
 10
-41.18770079714686
 20
385.3004558999953
 30
0.0
 10
-41.65781503634686
 20
385.2252375861953
 30
0.0
  0
SPLINE
  5
B88
330
209
100
AcDbEntity
  8
0
  6
Continuous
 62
     7
100
AcDbSpline
210
0.0
220
0.0
230
1.0
 70
     8
 71
     3
 72
     8
 73
     4
 74
     0
 42
0.0000001
 43
0.0000000001
 40
0.0
 40
0.0
 40
0.0
 40
0.0
 40
1.0
 40
1.0
 40
1.0
 40
1.0
 10
-41.65781503634686
 20
385.2252375861953
 30
0.0
 10
-42.12792925934685
 20
385.1500192750953
 30
0.0
 10
-42.77668743234685
 20
385.1124101448953
 30
0.0
 10
-43.58528404334685
 20
385.1124101448953
 30
0.0
  0
SPLINE
  5
B89
330
209
100
AcDbEntity
  8
0
  6
Continuous
 62
     7
100
AcDbSpline
210
0.0
220
0.0
230
1.0
 70
     8
 71
     3
 72
     8
 73
     4
 74
     0
 42
0.0000001
 43
0.0000000001
 40
0.0
 40
0.0
 40
0.0
 40
0.0
 40
1.0
 40
1.0
 40
1.0
 40
1.0
 10
-42.98353796104684
 20
390.2836661655952
 30
0.0
 10
-42.34418253994685
 20
390.2836661655952
 30
0.0
 10
-41.85526280504685
 20
390.2554591614952
 30
0.0
 10
-41.50797352514685
 20
390.2132212310953
 30
0.0
  0
SPLINE
  5
B8A
330
209
100
AcDbEntity
  8
0
  6
Continuous
 62
     7
100
AcDbSpline
210
0.0
220
0.0
230
1.0
 70
     8
 71
     3
 72
     8
 73
     4
 74
     0
 42
0.0000001
 43
0.0000000001
 40
0.0
 40
0.0
 40
0.0
 40
0.0
 40
1.0
 40
1.0
 40
1.0
 40
1.0
 10
-41.50797352514685
 20
390.2132212310953
 30
0.0
 10
-41.15949421024685
 20
390.1708385665953
 30
0.0
 10
-40.83981733424685
 20
390.0674133021953
 30
0.0
 10
-40.54207682554685
 20
389.9110998323952
 30
0.0
  0
SPLINE
  5
B8B
330
209
100
AcDbEntity
  8
0
  6
Continuous
 62
     7
100
AcDbSpline
210
0.0
220
0.0
230
1.0
 70
     8
 71
     3
 72
     8
 73
     4
 74
     0
 42
0.0000001
 43
0.0000000001
 40
0.0
 40
0.0
 40
0.0
 40
0.0
 40
1.0
 40
1.0
 40
1.0
 40
1.0
 10
-40.54207682554685
 20
389.9110998323952
 30
0.0
 10
-40.08763389684686
 20
389.6725177485953
 30
0.0
 10
-39.77735977274685
 20
389.3810466248951
 30
0.0
 10
-39.62692249514685
 20
389.0425646277952
 30
0.0
  0
SPLINE
  5
B8C
330
209
100
AcDbEntity
  8
0
  6
Continuous
 62
     7
100
AcDbSpline
210
0.0
220
0.0
230
1.0
 70
     8
 71
     3
 72
     8
 73
     4
 74
     0
 42
0.0000001
 43
0.0000000001
 40
0.0
 40
0.0
 40
0.0
 40
0.0
 40
1.0
 40
1.0
 40
1.0
 40
1.0
 10
-39.62692249514685
 20
389.0425646277952
 30
0.0
 10
-39.47648506264686
 20
388.7040822822953
 30
0.0
 10
-39.40126638514686
 20
388.2715773899952
 30
0.0
 10
-39.40126638514686
 20
387.7450495679953
 30
0.0
  0
SPLINE
  5
B8D
330
209
100
AcDbEntity
  8
0
  6
Continuous
 62
     7
100
AcDbSpline
210
0.0
220
0.0
230
1.0
 70
     8
 71
     3
 72
     8
 73
     4
 74
     0
 42
0.0000001
 43
0.0000000001
 40
0.0
 40
0.0
 40
0.0
 40
0.0
 40
1.0
 40
1.0
 40
1.0
 40
1.0
 10
-25.71154384714686
 20
395.9156337697953
 30
0.0
 10
-26.23807125194686
 20
396.5173798520952
 30
0.0
 10
-26.88682775594687
 20
396.9780921656952
 30
0.0
 10
-27.65086360444684
 20
397.3108926713952
 30
0.0
  0
SPLINE
  5
B8E
330
209
100
AcDbEntity
  8
0
  6
Continuous
 62
     7
100
AcDbSpline
210
0.0
220
0.0
230
1.0
 70
     8
 71
     3
 72
     8
 73
     4
 74
     0
 42
0.0000001
 43
0.0000000001
 40
0.0
 40
0.0
 40
0.0
 40
0.0
 40
1.0
 40
1.0
 40
1.0
 40
1.0
 10
-27.65086360444684
 20
397.3108926713952
 30
0.0
 10
-28.41939954854685
 20
397.6456533391953
 30
0.0
 10
-29.27500991924686
 20
397.8148945290953
 30
0.0
 10
-30.22463779544686
 20
397.8148945290953
 30
0.0
  0
SPLINE
  5
B8F
330
209
100
AcDbEntity
  8
0
  6
Continuous
 62
     7
100
AcDbSpline
210
0.0
220
0.0
230
1.0
 70
     8
 71
     3
 72
     8
 73
     4
 74
     0
 42
0.0000001
 43
0.0000000001
 40
0.0
 40
0.0
 40
0.0
 40
0.0
 40
1.0
 40
1.0
 40
1.0
 40
1.0
 10
-30.22463779544686
 20
397.8148945290953
 30
0.0
 10
-31.16486625774685
 20
397.8148945290953
 30
0.0
 10
-32.02047662834686
 20
397.6456533391953
 30
0.0
 10
-32.78205958084686
 20
397.3259767039952
 30
0.0
  0
SPLINE
  5
B90
330
209
100
AcDbEntity
  8
0
  6
Continuous
 62
     7
100
AcDbSpline
210
0.0
220
0.0
230
1.0
 70
     8
 71
     3
 72
     8
 73
     4
 74
     0
 42
0.0000001
 43
0.0000000001
 40
0.0
 40
0.0
 40
0.0
 40
0.0
 40
1.0
 40
1.0
 40
1.0
 40
1.0
 10
-32.78205958084686
 20
397.3259767039952
 30
0.0
 10
-33.54364566904685
 20
397.0062987525953
 30
0.0
 10
-34.19240217304686
 20
396.5361845213952
 30
0.0
 10
-34.72639040954687
 20
395.9139723170952
 30
0.0
  0
SPLINE
  5
B91
330
209
100
AcDbEntity
  8
0
  6
Continuous
 62
     7
100
AcDbSpline
210
0.0
220
0.0
230
1.0
 70
     8
 71
     3
 72
     8
 73
     4
 74
     0
 42
0.0000001
 43
0.0000000001
 40
0.0
 40
0.0
 40
0.0
 40
0.0
 40
1.0
 40
1.0
 40
1.0
 40
1.0
 10
-34.72639040954687
 20
395.9139723170952
 30
0.0
 10
-35.27366523844686
 20
395.2762783486953
 30
0.0
 10
-35.68736629584686
 20
394.5052910763952
 30
0.0
 10
-35.97744365894683
 20
393.6210214319954
 30
0.0
  0
SPLINE
  5
B92
330
209
100
AcDbEntity
  8
0
  6
Continuous
 62
     7
100
AcDbSpline
210
0.0
220
0.0
230
1.0
 70
     8
 71
     3
 72
     8
 73
     4
 74
     0
 42
0.0000001
 43
0.0000000001
 40
0.0
 40
0.0
 40
0.0
 40
0.0
 40
1.0
 40
1.0
 40
1.0
 40
1.0
 10
-35.97744365894683
 20
393.6210214319954
 30
0.0
 10
-36.27030687434686
 20
392.7282594163953
 30
0.0
 10
-36.41134147744685
 20
391.6940084416951
 30
0.0
 10
-36.41134147744685
 20
390.5187232811952
 30
0.0
  0
SPLINE
  5
B93
330
209
100
AcDbEntity
  8
0
  6
Continuous
 62
     7
100
AcDbSpline
210
0.0
220
0.0
230
1.0
 70
     8
 71
     3
 72
     8
 73
     4
 74
     0
 42
0.0000001
 43
0.0000000001
 40
0.0
 40
0.0
 40
0.0
 40
0.0
 40
1.0
 40
1.0
 40
1.0
 40
1.0
 10
-36.41134147744685
 20
390.5187232811952
 30
0.0
 10
-36.41134147744685
 20
389.3716447074952
 30
0.0
 10
-36.27030687434686
 20
388.3373933155953
 30
0.0
 10
-35.98446722594687
 20
387.4330131650952
 30
0.0
  0
SPLINE
  5
B94
330
209
100
AcDbEntity
  8
0
  6
Continuous
 62
     7
100
AcDbSpline
210
0.0
220
0.0
230
1.0
 70
     8
 71
     3
 72
     8
 73
     4
 74
     0
 42
0.0000001
 43
0.0000000001
 40
0.0
 40
0.0
 40
0.0
 40
0.0
 40
1.0
 40
1.0
 40
1.0
 40
1.0
 10
-35.98446722594687
 20
387.4330131650952
 30
0.0
 10
-35.69676904774683
 20
386.5227527339953
 30
0.0
 10
-35.28306799034685
 20
385.7611675877952
 30
0.0
 10
-34.74240248114686
 20
385.1366063037954
 30
0.0
  0
SPLINE
  5
B95
330
209
100
AcDbEntity
  8
0
  6
Continuous
 62
     7
100
AcDbSpline
210
0.0
220
0.0
230
1.0
 70
     8
 71
     3
 72
     8
 73
     4
 74
     0
 42
0.0000001
 43
0.0000000001
 40
0.0
 40
0.0
 40
0.0
 40
0.0
 40
1.0
 40
1.0
 40
1.0
 40
1.0
 10
-34.74240248114686
 20
385.1366063037954
 30
0.0
 10
-34.19240217304686
 20
384.5012617278953
 30
0.0
 10
-33.54364566904685
 20
384.0311475489952
 30
0.0
 10
-32.78277307084684
 20
383.7097856305951
 30
0.0
  0
SPLINE
  5
B96
330
209
100
AcDbEntity
  8
0
  6
Continuous
 62
     7
100
AcDbSpline
210
0.0
220
0.0
230
1.0
 70
     8
 71
     3
 72
     8
 73
     4
 74
     0
 42
0.0000001
 43
0.0000000001
 40
0.0
 40
0.0
 40
0.0
 40
0.0
 40
1.0
 40
1.0
 40
1.0
 40
1.0
 10
-32.78277307084684
 20
383.7097856305951
 30
0.0
 10
-32.02987604244685
 20
383.3917922712953
 30
0.0
 10
-31.17426900964685
 20
383.2319534551953
 30
0.0
 10
-30.22463779544686
 20
383.2319534551953
 30
0.0
  0
SPLINE
  5
B97
330
209
100
AcDbEntity
  8
0
  6
Continuous
 62
     7
100
AcDbSpline
210
0.0
220
0.0
230
1.0
 70
     8
 71
     3
 72
     8
 73
     4
 74
     0
 42
0.0000001
 43
0.0000000001
 40
0.0
 40
0.0
 40
0.0
 40
0.0
 40
1.0
 40
1.0
 40
1.0
 40
1.0
 10
-30.22463779544686
 20
383.2319534551953
 30
0.0
 10
-29.31261758904687
 20
383.2319534551953
 30
0.0
 10
-28.47581272224686
 20
383.3917922712953
 30
0.0
 10
-27.71586508214685
 20
383.6967097130952
 30
0.0
  0
SPLINE
  5
B98
330
209
100
AcDbEntity
  8
0
  6
Continuous
 62
     7
100
AcDbSpline
210
0.0
220
0.0
230
1.0
 70
     8
 71
     3
 72
     8
 73
     4
 74
     0
 42
0.0000001
 43
0.0000000001
 40
0.0
 40
0.0
 40
0.0
 40
0.0
 40
1.0
 40
1.0
 40
1.0
 40
1.0
 10
-27.71586508214685
 20
383.6967097130952
 30
0.0
 10
-26.95264368154685
 20
384.0029407013952
 30
0.0
 10
-26.28508167364684
 20
384.4824571628953
 30
0.0
 10
-25.71021325874685
 20
385.1394501576953
 30
0.0
  0
SPLINE
  5
B99
330
209
100
AcDbEntity
  8
0
  6
Continuous
 62
     7
100
AcDbSpline
210
0.0
220
0.0
230
1.0
 70
     8
 71
     3
 72
     8
 73
     4
 74
     0
 42
0.0000001
 43
0.0000000001
 40
0.0
 40
0.0
 40
0.0
 40
0.0
 40
1.0
 40
1.0
 40
1.0
 40
1.0
 10
-25.71021325874685
 20
385.1394501576953
 30
0.0
 10
-25.16621093844686
 20
385.7611675877952
 30
0.0
 10
-24.75250988104685
 20
386.5227527339953
 30
0.0
 10
-24.46398371944686
 20
387.4450928070952
 30
0.0
  0
SPLINE
  5
B9A
330
209
100
AcDbEntity
  8
0
  6
Continuous
 62
     7
100
AcDbSpline
210
0.0
220
0.0
230
1.0
 70
     8
 71
     3
 72
     8
 73
     4
 74
     0
 42
0.0000001
 43
0.0000000001
 40
0.0
 40
0.0
 40
0.0
 40
0.0
 40
1.0
 40
1.0
 40
1.0
 40
1.0
 10
-24.46398371944686
 20
387.4450928070952
 30
0.0
 10
-24.17897205454686
 20
388.3561979848952
 30
0.0
 10
-24.02853469944685
 20
389.3810466248951
 30
0.0
 10
-24.02853469944685
 20
390.5187232811952
 30
0.0
  0
SPLINE
  5
B9B
330
209
100
AcDbEntity
  8
0
  6
Continuous
 62
     7
100
AcDbSpline
210
0.0
220
0.0
230
1.0
 70
     8
 71
     3
 72
     8
 73
     4
 74
     0
 42
0.0000001
 43
0.0000000001
 40
0.0
 40
0.0
 40
0.0
 40
0.0
 40
1.0
 40
1.0
 40
1.0
 40
1.0
 10
-24.02853469944685
 20
390.5187232811952
 30
0.0
 10
-24.02853469944685
 20
391.6846065241953
 30
0.0
 10
-24.17897205454686
 20
392.7188574988952
 30
0.0
 10
-24.47607174044686
 20
393.6290209855952
 30
0.0
  0
SPLINE
  5
B9C
330
209
100
AcDbEntity
  8
0
  6
Continuous
 62
     7
100
AcDbSpline
210
0.0
220
0.0
230
1.0
 70
     8
 71
     3
 72
     8
 73
     4
 74
     0
 42
0.0000001
 43
0.0000000001
 40
0.0
 40
0.0
 40
0.0
 40
0.0
 40
1.0
 40
1.0
 40
1.0
 40
1.0
 10
-24.47607174044686
 20
393.6290209855952
 30
0.0
 10
-24.77131538494685
 20
394.5334984976954
 30
0.0
 10
-25.18501644234685
 20
395.2950830180952
 30
0.0
 10
-25.71154384714686
 20
395.9156337697953
 30
0.0
  0
SPLINE
  5
B9D
330
209
100
AcDbEntity
  8
0
  6
Continuous
 62
     7
100
AcDbSpline
210
0.0
220
0.0
230
1.0
 70
     8
 71
     3
 72
     8
 73
     4
 74
     0
 42
0.0000001
 43
0.0000000001
 40
0.0
 40
0.0
 40
0.0
 40
0.0
 40
1.0
 40
1.0
 40
1.0
 40
1.0
 10
-25.96540479754686
 20
390.5187232811952
 30
0.0
 10
-25.96540479754686
 20
388.6758756954953
 30
0.0
 10
-26.35089759924685
 20
387.2749353367952
 30
0.0
 10
-27.12188556204687
 20
386.2970969729953
 30
0.0
  0
SPLINE
  5
B9E
330
209
100
AcDbEntity
  8
0
  6
Continuous
 62
     7
100
AcDbSpline
210
0.0
220
0.0
230
1.0
 70
     8
 71
     3
 72
     8
 73
     4
 74
     0
 42
0.0000001
 43
0.0000000001
 40
0.0
 40
0.0
 40
0.0
 40
0.0
 40
1.0
 40
1.0
 40
1.0
 40
1.0
 10
-27.12188556204687
 20
386.2970969729953
 30
0.0
 10
-27.89287214374686
 20
385.3192603606952
 30
0.0
 10
-28.91772203544688
 20
384.8397438991952
 30
0.0
 10
-30.21523504354685
 20
384.8397438991952
 30
0.0
  0
SPLINE
  5
B9F
330
209
100
AcDbEntity
  8
0
  6
Continuous
 62
     7
100
AcDbSpline
210
0.0
220
0.0
230
1.0
 70
     8
 71
     3
 72
     8
 73
     4
 74
     0
 42
0.0000001
 43
0.0000000001
 40
0.0
 40
0.0
 40
0.0
 40
0.0
 40
1.0
 40
1.0
 40
1.0
 40
1.0
 10
-30.21523504354685
 20
384.8397438991952
 30
0.0
 10
-31.51275138954684
 20
384.8397438991952
 30
0.0
 10
-32.54700403314685
 20
385.3192603606952
 30
0.0
 10
-33.31799061484685
 20
386.2970969729953
 30
0.0
  0
SPLINE
  5
BA0
330
209
100
AcDbEntity
  8
0
  6
Continuous
 62
     7
100
AcDbSpline
210
0.0
220
0.0
230
1.0
 70
     8
 71
     3
 72
     8
 73
     4
 74
     0
 42
0.0000001
 43
0.0000000001
 40
0.0
 40
0.0
 40
0.0
 40
0.0
 40
1.0
 40
1.0
 40
1.0
 40
1.0
 10
-33.31799061484685
 20
386.2970969729953
 30
0.0
 10
-34.08897857764686
 20
387.2749353367952
 30
0.0
 10
-34.47447137934686
 20
388.6758756954953
 30
0.0
 10
-34.47447137934686
 20
390.5187232811952
 30
0.0
  0
SPLINE
  5
BA1
330
209
100
AcDbEntity
  8
0
  6
Continuous
 62
     7
100
AcDbSpline
210
0.0
220
0.0
230
1.0
 70
     8
 71
     3
 72
     8
 73
     4
 74
     0
 42
0.0000001
 43
0.0000000001
 40
0.0
 40
0.0
 40
0.0
 40
0.0
 40
1.0
 40
1.0
 40
1.0
 40
1.0
 10
-34.47447137934686
 20
390.5187232811952
 30
0.0
 10
-34.47447137934686
 20
391.4213419873953
 30
0.0
 10
-34.38044719794685
 20
392.2393413502951
 30
0.0
 10
-34.18179977474686
 20
392.9629861345952
 30
0.0
  0
SPLINE
  5
BA2
330
209
100
AcDbEntity
  8
0
  6
Continuous
 62
     7
100
AcDbSpline
210
0.0
220
0.0
230
1.0
 70
     8
 71
     3
 72
     8
 73
     4
 74
     0
 42
0.0000001
 43
0.0000000001
 40
0.0
 40
0.0
 40
0.0
 40
0.0
 40
1.0
 40
1.0
 40
1.0
 40
1.0
 10
-34.18179977474686
 20
392.9629861345952
 30
0.0
 10
-33.98555164434686
 20
393.6778906304953
 30
0.0
 10
-33.70348243814685
 20
394.2796367127952
 30
0.0
 10
-33.32677222934686
 20
394.7586645281953
 30
0.0
  0
SPLINE
  5
BA3
330
209
100
AcDbEntity
  8
0
  6
Continuous
 62
     7
100
AcDbSpline
210
0.0
220
0.0
230
1.0
 70
     8
 71
     3
 72
     8
 73
     4
 74
     0
 42
0.0000001
 43
0.0000000001
 40
0.0
 40
0.0
 40
0.0
 40
0.0
 40
1.0
 40
1.0
 40
1.0
 40
1.0
 10
-33.32677222934686
 20
394.7586645281953
 30
0.0
 10
-32.94189958674686
 20
395.2480717618953
 30
0.0
 10
-32.49999027354685
 20
395.6147607285952
 30
0.0
 10
-31.99226837254685
 20
395.8498178441952
 30
0.0
  0
SPLINE
  5
BA4
330
209
100
AcDbEntity
  8
0
  6
Continuous
 62
     7
100
AcDbSpline
210
0.0
220
0.0
230
1.0
 70
     8
 71
     3
 72
     8
 73
     4
 74
     0
 42
0.0000001
 43
0.0000000001
 40
0.0
 40
0.0
 40
0.0
 40
0.0
 40
1.0
 40
1.0
 40
1.0
 40
1.0
 10
-31.99226837254685
 20
395.8498178441952
 30
0.0
 10
-31.48454647164686
 20
396.0848749596952
 30
0.0
 10
-30.89219980334686
 20
396.2071048934952
 30
0.0
 10
-30.21523504354685
 20
396.2071048934952
 30
0.0
  0
SPLINE
  5
BA5
330
209
100
AcDbEntity
  8
0
  6
Continuous
 62
     7
100
AcDbSpline
210
0.0
220
0.0
230
1.0
 70
     8
 71
     3
 72
     8
 73
     4
 74
     0
 42
0.0000001
 43
0.0000000001
 40
0.0
 40
0.0
 40
0.0
 40
0.0
 40
1.0
 40
1.0
 40
1.0
 40
1.0
 10
-30.21523504354685
 20
396.2071048934952
 30
0.0
 10
-29.56647853954687
 20
396.2071048934952
 30
0.0
 10
-28.98353796104686
 20
396.0848749596952
 30
0.0
 10
-28.45701039694684
 20
395.8404154354953
 30
0.0
  0
SPLINE
  5
BA6
330
209
100
AcDbEntity
  8
0
  6
Continuous
 62
     7
100
AcDbSpline
210
0.0
220
0.0
230
1.0
 70
     8
 71
     3
 72
     8
 73
     4
 74
     0
 42
0.0000001
 43
0.0000000001
 40
0.0
 40
0.0
 40
0.0
 40
0.0
 40
1.0
 40
1.0
 40
1.0
 40
1.0
 10
-28.45701039694684
 20
395.8404154354953
 30
0.0
 10
-27.93048315144686
 20
395.5959560591953
 30
0.0
 10
-27.48857383824687
 20
395.2386690098952
 30
0.0
 10
-27.11610934034685
 20
394.7563752478953
 30
0.0
  0
SPLINE
  5
BA7
330
209
100
AcDbEntity
  8
0
  6
Continuous
 62
     7
100
AcDbSpline
210
0.0
220
0.0
230
1.0
 70
     8
 71
     3
 72
     8
 73
     4
 74
     0
 42
0.0000001
 43
0.0000000001
 40
0.0
 40
0.0
 40
0.0
 40
0.0
 40
1.0
 40
1.0
 40
1.0
 40
1.0
 10
-27.11610934034685
 20
394.7563752478953
 30
0.0
 10
-26.75519590474688
 20
394.2890386302952
 30
0.0
 10
-26.47312669854685
 20
393.6966952998952
 30
0.0
 10
-26.27063282484685
 20
392.9809030700953
 30
0.0
  0
SPLINE
  5
BA8
330
209
100
AcDbEntity
  8
0
  6
Continuous
 62
     7
100
AcDbSpline
210
0.0
220
0.0
230
1.0
 70
     8
 71
     3
 72
     8
 73
     4
 74
     0
 42
0.0000001
 43
0.0000000001
 40
0.0
 40
0.0
 40
0.0
 40
0.0
 40
1.0
 40
1.0
 40
1.0
 40
1.0
 10
-26.27063282484685
 20
392.9809030700953
 30
0.0
 10
-26.06882839304686
 20
392.2675479371951
 30
0.0
 10
-25.96540479754686
 20
391.4401466567952
 30
0.0
 10
-25.96540479754686
 20
390.5187232811952
 30
0.0
  0
ENDSEC
  0
SECTION
  2
OBJECTS
  0
DICTIONARY
  5
C
330
0
100
AcDbDictionary
281
     1
  3
ACAD_CIP_PREVIOUS_PRODUCT_INFO
350
561
  3
ACAD_COLOR
350
544
  3
ACAD_DETAILVIEWSTYLE
350
55D
  3
ACAD_GROUP
350
D
  3
ACAD_LAYOUT
350
1A
  3
ACAD_MATERIAL
350
512
  3
ACAD_MLEADERSTYLE
350
559
  3
ACAD_MLINESTYLE
350
17
  3
ACAD_PLOTSETTINGS
350
19
  3
ACAD_PLOTSTYLENAME
350
E
  3
ACAD_SCALELIST
350
547
  3
ACAD_SECTIONVIEWSTYLE
350
55B
  3
ACAD_TABLESTYLE
350
545
  3
ACAD_VISUALSTYLE
350
52B
  3
ACDB_RECOMPOSE_DATA
350
BBD
  3
AcDbVariableDictionary
350
BB1
  3
DWGPROPS
350
BBE
  0
DICTIONARY
  5
ABA
330
10
100
AcDbDictionary
280
     1
281
     1
  3
ADSK_XREC_LAYER_RECONCILED
360
ABB
  0
DICTIONARY
  5
ABC
330
1FA
100
AcDbDictionary
280
     1
281
     1
  3
ADSK_XREC_LAYER_RECONCILED
360
ABD
  0
DICTIONARY
  5
ABE
330
1FB
100
AcDbDictionary
280
     1
281
     1
  3
ADSK_XREC_LAYER_RECONCILED
360
ABF
  0
DICTIONARY
  5
AC0
330
1FC
100
AcDbDictionary
280
     1
281
     1
  3
ADSK_XREC_LAYER_RECONCILED
360
AC1
  0
DICTIONARY
  5
AC2
330
1FD
100
AcDbDictionary
280
     1
281
     1
  3
ADSK_XREC_LAYER_RECONCILED
360
AC3
  0
DICTIONARY
  5
AC4
330
1FE
100
AcDbDictionary
280
     1
281
     1
  3
ADSK_XREC_LAYER_RECONCILED
360
AC5
  0
DICTIONARY
  5
AC6
330
1FF
100
AcDbDictionary
280
     1
281
     1
  3
ADSK_XREC_LAYER_RECONCILED
360
AC7
  0
DICTIONARY
  5
AC8
330
200
100
AcDbDictionary
280
     1
281
     1
  3
ADSK_XREC_LAYER_RECONCILED
360
AC9
  0
DICTIONARY
  5
ACA
330
201
100
AcDbDictionary
280
     1
281
     1
  3
ADSK_XREC_LAYER_RECONCILED
360
ACB
  0
DICTIONARY
  5
ACC
330
202
100
AcDbDictionary
280
     1
281
     1
  3
ADSK_XREC_LAYER_RECONCILED
360
ACD
  0
DICTIONARY
  5
ACE
330
203
100
AcDbDictionary
280
     1
281
     1
  3
ADSK_XREC_LAYER_RECONCILED
360
ACF
  0
DICTIONARY
  5
AD0
330
204
100
AcDbDictionary
280
     1
281
     1
  3
ADSK_XREC_LAYER_RECONCILED
360
AD1
  0
DICTIONARY
  5
AD2
330
205
100
AcDbDictionary
280
     1
281
     1
  3
ADSK_XREC_LAYER_RECONCILED
360
AD3
  0
DICTIONARY
  5
AD4
330
206
100
AcDbDictionary
280
     1
281
     1
  3
ADSK_XREC_LAYER_RECONCILED
360
AD5
  0
XRECORD
  5
561
102
{ACAD_REACTORS
330
C
102
}
330
C
100
AcDbXrecord
280
     1
300
ACD
300
2013
300
ACD_F_S
  0
DICTIONARY
  5
544
102
{ACAD_REACTORS
330
C
102
}
330
C
100
AcDbDictionary
281
     1
  0
DICTIONARY
  5
55D
102
{ACAD_REACTORS
330
C
102
}
330
C
100
AcDbDictionary
281
     1
  3
Metric50
350
55E
  0
DICTIONARY
  5
D
102
{ACAD_REACTORS
330
C
102
}
330
C
100
AcDbDictionary
281
     1
  0
DICTIONARY
  5
1A
102
{ACAD_REACTORS
330
C
102
}
330
C
100
AcDbDictionary
281
     1
  3
Layout1
350
50F
  3
Model
350
50E
  0
DICTIONARY
  5
512
102
{ACAD_REACTORS
330
C
102
}
330
C
100
AcDbDictionary
281
     1
  3
ByBlock
350
51B
  3
ByLayer
350
513
  3
Global
350
523
  0
DICTIONARY
  5
559
102
{ACAD_REACTORS
330
C
102
}
330
C
100
AcDbDictionary
281
     1
  3
Standard
350
55A
  0
DICTIONARY
  5
17
102
{ACAD_REACTORS
330
C
102
}
330
C
100
AcDbDictionary
281
     1
  3
Standard
350
18
  0
DICTIONARY
  5
19
102
{ACAD_REACTORS
330
C
102
}
330
C
100
AcDbDictionary
281
     1
  0
ACDBDICTIONARYWDFLT
  5
E
102
{ACAD_REACTORS
330
C
102
}
330
C
100
AcDbDictionary
281
     1
  3
Normal
350
F
100
AcDbDictionaryWithDefault
340
F
  0
DICTIONARY
  5
547
102
{ACAD_REACTORS
330
C
102
}
330
C
100
AcDbDictionary
281
     1
  3
A0
350
548
  3
A1
350
549
  3
A2
350
54A
  3
A3
350
54B
  3
A4
350
54C
  3
A5
350
54D
  3
A6
350
54E
  3
A7
350
54F
  3
A8
350
550
  3
A9
350
551
  3
B0
350
552
  3
B1
350
553
  3
B2
350
554
  3
B3
350
555
  3
B4
350
556
  3
B5
350
557
  3
B6
350
558
  0
DICTIONARY
  5
55B
102
{ACAD_REACTORS
330
C
102
}
330
C
100
AcDbDictionary
281
     1
  3
Metric50
350
55C
  0
DICTIONARY
  5
545
102
{ACAD_REACTORS
330
C
102
}
330
C
100
AcDbDictionary
281
     1
  3
Standard
350
546
  0
DICTIONARY
  5
52B
102
{ACAD_REACTORS
330
C
102
}
330
C
100
AcDbDictionary
281
     1
  3
2dWireframe
350
531
  3
Basic
350
530
  3
Brighten
350
537
  3
ColorChange
350
53B
  3
Conceptual
350
534
  3
Dim
350
536
  3
EdgeColorOff
350
543
  3
Facepattern
350
53A
  3
Flat
350
52C
  3
FlatWithEdges
350
52D
  3
Gouraud
350
52E
  3
GouraudWithEdges
350
52F
  3
Hidden
350
533
  3
JitterOff
350
541
  3
Linepattern
350
539
  3
OverhangOff
350
542
  3
Realistic
350
535
  3
Shaded
350
540
  3
Shaded with edges
350
53F
  3
Shades of Gray
350
53C
  3
Sketchy
350
53D
  3
Thicken
350
538
  3
Wireframe
350
532
  3
X-Ray
350
53E
  0
XRECORD
  5
BBD
102
{ACAD_REACTORS
330
C
102
}
330
C
100
AcDbXrecord
280
     1
 90
        1
330
546
  0
DICTIONARY
  5
BB1
102
{ACAD_REACTORS
330
C
102
}
330
C
100
AcDbDictionary
281
     1
  3
CANNOSCALE
350
BB6
  3
CMLEADERSTYLE
350
BB3
  3
CTABLESTYLE
350
BB2
  3
CVIEWDETAILSTYLE
350
BB4
  3
CVIEWSECTIONSTYLE
350
BB5
  3
DIMASSOC
350
BB9
  3
INDEXCTL
350
BB8
  3
SORTENTS
350
BB7
  3
XCLIPFRAME
350
BBA
  0
XRECORD
  5
BBE
102
{ACAD_REACTORS
330
C
102
}
330
C
100
AcDbXrecord
280
     1
  1
DWGPROPS COOKIE
  2

  3

  4

  6

  7

  8
Surago
  9

300
=
301
=
302
=
303
=
304
=
305
=
306
=
307
=
308
=
309
=
 40
0.0018675462962963
 41
2457218.576270081
 42
2457218.578137361
  1

 90
        0
  0
XRECORD
  5
ABB
102
{ACAD_REACTORS
330
ABA
102
}
330
ABA
100
AcDbXrecord
280
     1
290
     1
  0
XRECORD
  5
ABD
102
{ACAD_REACTORS
330
ABC
102
}
330
ABC
100
AcDbXrecord
280
     1
290
     1
  0
XRECORD
  5
ABF
102
{ACAD_REACTORS
330
ABE
102
}
330
ABE
100
AcDbXrecord
280
     1
290
     1
  0
XRECORD
  5
AC1
102
{ACAD_REACTORS
330
AC0
102
}
330
AC0
100
AcDbXrecord
280
     1
290
     1
  0
XRECORD
  5
AC3
102
{ACAD_REACTORS
330
AC2
102
}
330
AC2
100
AcDbXrecord
280
     1
290
     1
  0
XRECORD
  5
AC5
102
{ACAD_REACTORS
330
AC4
102
}
330
AC4
100
AcDbXrecord
280
     1
290
     1
  0
XRECORD
  5
AC7
102
{ACAD_REACTORS
330
AC6
102
}
330
AC6
100
AcDbXrecord
280
     1
290
     1
  0
XRECORD
  5
AC9
102
{ACAD_REACTORS
330
AC8
102
}
330
AC8
100
AcDbXrecord
280
     1
290
     1
  0
XRECORD
  5
ACB
102
{ACAD_REACTORS
330
ACA
102
}
330
ACA
100
AcDbXrecord
280
     1
290
     1
  0
XRECORD
  5
ACD
102
{ACAD_REACTORS
330
ACC
102
}
330
ACC
100
AcDbXrecord
280
     1
290
     1
  0
XRECORD
  5
ACF
102
{ACAD_REACTORS
330
ACE
102
}
330
ACE
100
AcDbXrecord
280
     1
290
     1
  0
XRECORD
  5
AD1
102
{ACAD_REACTORS
330
AD0
102
}
330
AD0
100
AcDbXrecord
280
     1
290
     1
  0
XRECORD
  5
AD3
102
{ACAD_REACTORS
330
AD2
102
}
330
AD2
100
AcDbXrecord
280
     1
290
     1
  0
XRECORD
  5
AD5
102
{ACAD_REACTORS
330
AD4
102
}
330
AD4
100
AcDbXrecord
280
     1
290
     1
  0
ACDBDETAILVIEWSTYLE
  5
55E
102
{ACAD_REACTORS
330
55D
102
}
330
55D
100
AcDbModelDocViewStyle
 70
     0
  3
Metric50
290
     0
100
AcDbDetailViewStyle
 70
     0
 71
     0
 90
        3
 71
     1
340
11
 40
5.0
340
0
 40
5.0
300

 40
0.0
280
     1
 71
     2
340
16
 90
       25
 71
     3
340
11
 40
5.0
 90
        0
 40
15.0
 90
        1
300
%<\AcVar ViewDetailId>% (%<\AcVar ViewScale \f "%sn">%)
 71
     4
340
16
 90
       25
340
16
 90
       25
280
     0
  0
LAYOUT
  5
50F
102
{ACAD_XDICTIONARY
360
BC2
102
}
102
{ACAD_REACTORS
330
1A
102
}
330
1A
100
AcDbPlotSettings
  1

  2
none_device
  4
ISO_A2_(594.00_x_420.00_MM)
  6

 40
0.0
 41
0.0
 42
0.0
 43
0.0
 44
594.0
 45
420.0
 46
0.0
 47
0.0
 48
0.0
 49
0.0
140
0.0
141
0.0
142
1.0
143
1.0
 70
     0
 72
     1
 73
     0
 74
     0
  7

 75
     0
147
1.0
148
0.0
149
0.0
100
AcDbLayout
  1
Layout1
 70
     1
 71
     1
 10
0.0
 20
0.0
 11
12.0
 21
9.0
 12
0.0
 22
0.0
 32
0.0
 14
1.000000000000000E+20
 24
1.000000000000000E+20
 34
1.000000000000000E+20
 15
-1.000000000000000E+20
 25
-1.000000000000000E+20
 35
-1.000000000000000E+20
146
0.0
 13
0.0
 23
0.0
 33
0.0
 16
1.0
 26
0.0
 36
0.0
 17
0.0
 27
1.0
 37
0.0
 76
     0
330
20A
  0
LAYOUT
  5
50E
102
{ACAD_XDICTIONARY
360
BC0
102
}
102
{ACAD_REACTORS
330
1A
102
}
330
1A
100
AcDbPlotSettings
  1

  2
\\s-cmo-dc00v\pdfFactory Pro
  4
User66
  6

 40
7.143749713897705
 41
7.143798828125
 42
7.143768310546875
 43
7.14373779296875
 44
419.9889831542968
 45
593.97900390625
 46
28.70878357666749
 47
0.0
 48
-105.0573428007899
 49
0.0
140
594.0
141
420.0
142
1.0
143
1.205912769554215
 70
  3220
 72
     1
 73
     1
 74
     4
  7

 75
     0
147
0.829247376134565
148
105.0573428007899
149
0.0
100
AcDbLayout
  1
Model
 70
     0
 71
     0
 10
0.0
 20
0.0
 11
594.0
 21
420.0
 12
0.0
 22
0.0
 32
0.0
 14
0.0
 24
0.0
 34
0.0
 15
0.0
 25
0.0
 35
0.0
146
0.0
 13
0.0
 23
0.0
 33
0.0
 16
1.0
 26
0.0
 36
0.0
 17
0.0
 27
1.0
 37
0.0
 76
     0
330
209
331
1F4
1001
ACAD_PSEXT
1000
\\s-cmo-dc00v\pdfFactory Pro
1000
pdfFactory 4
1000
cmo pdf
1000
cmo pdf 
1070
     0
  0
MATERIAL
  5
51B
102
{ACAD_XDICTIONARY
360
51C
102
}
102
{ACAD_REACTORS
330
512
102
}
330
512
100
AcDbMaterial
  1
ByBlock
 72
     0
 43
0.0008202099737533
 43
0.0
 43
0.0
 43
0.0
 43
0.0
 43
0.0008202099737533
 43
0.0
 43
0.0
 43
0.0
 43
0.0
 43
1.0
 43
0.0
 43
0.0
 43
0.0
 43
0.0
 43
1.0
 77
     0
 47
0.0008202099737533
 47
0.0
 47
0.0
 47
0.0
 47
0.0
 47
0.0008202099737533
 47
0.0
 47
0.0
 47
0.0
 47
0.0
 47
1.0
 47
0.0
 47
0.0
 47
0.0
 47
0.0
 47
1.0
171
     0
 49
0.0008202099737533
 49
0.0
 49
0.0
 49
0.0
 49
0.0
 49
0.0008202099737533
 49
0.0
 49
0.0
 49
0.0
 49
0.0
 49
1.0
 49
0.0
 49
0.0
 49
0.0
 49
0.0
 49
1.0
175
     0
142
0.0008202099737533
142
0.0
142
0.0
142
0.0
142
0.0
142
0.0008202099737533
142
0.0
142
0.0
142
0.0
142
0.0
142
1.0
142
0.0
142
0.0
142
0.0
142
0.0
142
1.0
179
     0
144
0.0008202099737533
144
0.0
144
0.0
144
0.0
144
0.0
144
0.0008202099737533
144
0.0
144
0.0
144
0.0
144
0.0
144
1.0
144
0.0
144
0.0
144
0.0
144
0.0
144
1.0
147
0.0008202099737533
147
0.0
147
0.0
147
0.0
147
0.0
147
0.0008202099737533
147
0.0
147
0.0
147
0.0
147
0.0
147
1.0
147
0.0
147
0.0
147
0.0
147
0.0
147
1.0
  0
MATERIAL
  5
513
102
{ACAD_XDICTIONARY
360
514
102
}
102
{ACAD_REACTORS
330
512
102
}
330
512
100
AcDbMaterial
  1
ByLayer
 72
     0
 43
0.0008202099737533
 43
0.0
 43
0.0
 43
0.0
 43
0.0
 43
0.0008202099737533
 43
0.0
 43
0.0
 43
0.0
 43
0.0
 43
1.0
 43
0.0
 43
0.0
 43
0.0
 43
0.0
 43
1.0
 77
     0
 47
0.0008202099737533
 47
0.0
 47
0.0
 47
0.0
 47
0.0
 47
0.0008202099737533
 47
0.0
 47
0.0
 47
0.0
 47
0.0
 47
1.0
 47
0.0
 47
0.0
 47
0.0
 47
0.0
 47
1.0
171
     0
 49
0.0008202099737533
 49
0.0
 49
0.0
 49
0.0
 49
0.0
 49
0.0008202099737533
 49
0.0
 49
0.0
 49
0.0
 49
0.0
 49
1.0
 49
0.0
 49
0.0
 49
0.0
 49
0.0
 49
1.0
175
     0
142
0.0008202099737533
142
0.0
142
0.0
142
0.0
142
0.0
142
0.0008202099737533
142
0.0
142
0.0
142
0.0
142
0.0
142
1.0
142
0.0
142
0.0
142
0.0
142
0.0
142
1.0
179
     0
144
0.0008202099737533
144
0.0
144
0.0
144
0.0
144
0.0
144
0.0008202099737533
144
0.0
144
0.0
144
0.0
144
0.0
144
1.0
144
0.0
144
0.0
144
0.0
144
0.0
144
1.0
147
0.0008202099737533
147
0.0
147
0.0
147
0.0
147
0.0
147
0.0008202099737533
147
0.0
147
0.0
147
0.0
147
0.0
147
1.0
147
0.0
147
0.0
147
0.0
147
0.0
147
1.0
  0
MATERIAL
  5
523
102
{ACAD_XDICTIONARY
360
524
102
}
102
{ACAD_REACTORS
330
512
102
}
330
512
100
AcDbMaterial
  1
Global
 72
     0
 43
0.0008202099737533
 43
0.0
 43
0.0
 43
0.0
 43
0.0
 43
0.0008202099737533
 43
0.0
 43
0.0
 43
0.0
 43
0.0
 43
1.0
 43
0.0
 43
0.0
 43
0.0
 43
0.0
 43
1.0
 77
     0
 47
0.0008202099737533
 47
0.0
 47
0.0
 47
0.0
 47
0.0
 47
0.0008202099737533
 47
0.0
 47
0.0
 47
0.0
 47
0.0
 47
1.0
 47
0.0
 47
0.0
 47
0.0
 47
0.0
 47
1.0
171
     0
 49
0.0008202099737533
 49
0.0
 49
0.0
 49
0.0
 49
0.0
 49
0.0008202099737533
 49
0.0
 49
0.0
 49
0.0
 49
0.0
 49
1.0
 49
0.0
 49
0.0
 49
0.0
 49
0.0
 49
1.0
175
     0
142
0.0008202099737533
142
0.0
142
0.0
142
0.0
142
0.0
142
0.0008202099737533
142
0.0
142
0.0
142
0.0
142
0.0
142
1.0
142
0.0
142
0.0
142
0.0
142
0.0
142
1.0
179
     0
144
0.0008202099737533
144
0.0
144
0.0
144
0.0
144
0.0
144
0.0008202099737533
144
0.0
144
0.0
144
0.0
144
0.0
144
1.0
144
0.0
144
0.0
144
0.0
144
0.0
144
1.0
147
0.0008202099737533
147
0.0
147
0.0
147
0.0
147
0.0
147
0.0008202099737533
147
0.0
147
0.0
147
0.0
147
0.0
147
1.0
147
0.0
147
0.0
147
0.0
147
0.0
147
1.0
  0
MLEADERSTYLE
  5
55A
102
{ACAD_REACTORS
330
559
102
}
330
559
100
AcDbMLeaderStyle
170
     2
171
     1
172
     0
 90
        2
 40
0.0
 41
0.0
173
     1
 91
-1056964608
340
14
 92
       -2
290
     1
 42
2.0
291
     1
 43
0.36
  3
Standard
 44
4.0
300

342
11
174
     1
178
     6
175
     1
176
     0
 93
-1056964608
 45
4.0
292
     0
297
     0
 46
4.0
 94
-1056964608
 47
1.0
 49
1.0
140
1.0
293
     1
141
0.0
294
     1
177
     0
142
1.0
295
     0
296
     0
143
0.125
1001
ACAD_MLEADERVER
1070
     2
  0
MLINESTYLE
  5
18
102
{ACAD_REACTORS
330
17
102
}
330
17
100
AcDbMlineStyle
  2
STANDARD
 70
     0
  3

 62
   256
 51
90.0
 52
90.0
 71
     2
 49
0.5
 62
   256
  6
BYLAYER
 49
-0.5
 62
   256
  6
BYLAYER
  0
ACDBPLACEHOLDER
  5
F
102
{ACAD_REACTORS
330
E
102
}
330
E
  0
SCALE
  5
548
102
{ACAD_REACTORS
330
547
102
}
330
547
100
AcDbScale
 70
     0
300
1:1
140
1.0
141
1.0
290
     1
  0
SCALE
  5
549
102
{ACAD_REACTORS
330
547
102
}
330
547
100
AcDbScale
 70
     0
300
1:2
140
1.0
141
2.0
290
     0
  0
SCALE
  5
54A
102
{ACAD_REACTORS
330
547
102
}
330
547
100
AcDbScale
 70
     0
300
1:4
140
1.0
141
4.0
290
     0
  0
SCALE
  5
54B
102
{ACAD_REACTORS
330
547
102
}
330
547
100
AcDbScale
 70
     0
300
1:5
140
1.0
141
5.0
290
     0
  0
SCALE
  5
54C
102
{ACAD_REACTORS
330
547
102
}
330
547
100
AcDbScale
 70
     0
300
1:8
140
1.0
141
8.0
290
     0
  0
SCALE
  5
54D
102
{ACAD_REACTORS
330
547
102
}
330
547
100
AcDbScale
 70
     0
300
1:10
140
1.0
141
10.0
290
     0
  0
SCALE
  5
54E
102
{ACAD_REACTORS
330
547
102
}
330
547
100
AcDbScale
 70
     0
300
1:16
140
1.0
141
16.0
290
     0
  0
SCALE
  5
54F
102
{ACAD_REACTORS
330
547
102
}
330
547
100
AcDbScale
 70
     0
300
1:20
140
1.0
141
20.0
290
     0
  0
SCALE
  5
550
102
{ACAD_REACTORS
330
547
102
}
330
547
100
AcDbScale
 70
     0
300
1:30
140
1.0
141
30.0
290
     0
  0
SCALE
  5
551
102
{ACAD_REACTORS
330
547
102
}
330
547
100
AcDbScale
 70
     0
300
1:40
140
1.0
141
40.0
290
     0
  0
SCALE
  5
552
102
{ACAD_REACTORS
330
547
102
}
330
547
100
AcDbScale
 70
     0
300
1:50
140
1.0
141
50.0
290
     0
  0
SCALE
  5
553
102
{ACAD_REACTORS
330
547
102
}
330
547
100
AcDbScale
 70
     0
300
1:100
140
1.0
141
100.0
290
     0
  0
SCALE
  5
554
102
{ACAD_REACTORS
330
547
102
}
330
547
100
AcDbScale
 70
     0
300
2:1
140
2.0
141
1.0
290
     0
  0
SCALE
  5
555
102
{ACAD_REACTORS
330
547
102
}
330
547
100
AcDbScale
 70
     0
300
4:1
140
4.0
141
1.0
290
     0
  0
SCALE
  5
556
102
{ACAD_REACTORS
330
547
102
}
330
547
100
AcDbScale
 70
     0
300
8:1
140
8.0
141
1.0
290
     0
  0
SCALE
  5
557
102
{ACAD_REACTORS
330
547
102
}
330
547
100
AcDbScale
 70
     0
300
10:1
140
10.0
141
1.0
290
     0
  0
SCALE
  5
558
102
{ACAD_REACTORS
330
547
102
}
330
547
100
AcDbScale
 70
     0
300
100:1
140
100.0
141
1.0
290
     0
  0
ACDBSECTIONVIEWSTYLE
  5
55C
102
{ACAD_REACTORS
330
55B
102
}
330
55B
100
AcDbModelDocViewStyle
 70
     0
  3
Metric50
290
     0
100
AcDbSectionViewStyle
 70
     0
 71
     0
 90
      102
 71
     1
340
11
 40
5.0
340
0
340
0
 40
5.0
300
I, O, Q, S, X, Z
 40
10.0
 90
        0
 40
2.5
 90
        0
 71
     2
340
16
 90
       25
340
16
 90
       50
 40
5.0
 40
2.5
 40
5.0
 71
     3
340
11
 40
5.0
 90
        0
 40
15.0
 90
        1
300
%<\AcVar ViewSectionStartId>%-%<\AcVar ViewSectionEndId>% (%<\AcVar ViewScale \f "%sn">%)
 71
     4
300
ANSI31
 40
1.0
 90
        0
290
     0
290
     0
 90
        6
 40
0.0
 40
1.570796326794896
 40
0.2617993877991494
 40
1.308996938995747
 40
-0.2617993877991494
 40
1.832595714594046
  0
TABLESTYLE
  5
546
102
{ACAD_XDICTIONARY
360
BBB
102
}
102
{ACAD_REACTORS
330
545
102
}
330
545
100
AcDbTableStyle
  3
Standard
 70
     0
 71
     0
 40
1.5
 41
1.5
280
     0
281
     0
  7
STANDARD
140
4.5
170
     2
 62
     0
 63
     7
283
     0
274
    -2
284
     1
 64
     0
275
    -2
285
     1
 65
     0
276
    -2
286
     1
 66
     0
277
    -2
287
     1
 67
     0
278
    -2
288
     1
 68
     0
279
    -2
289
     1
 69
     0
  7
STANDARD
140
6.0
170
     5
 62
     0
 63
     7
283
     0
274
    -2
284
     1
 64
     0
275
    -2
285
     1
 65
     0
276
    -2
286
     1
 66
     0
277
    -2
287
     1
 67
     0
278
    -2
288
     1
 68
     0
279
    -2
289
     1
 69
     0
  7
STANDARD
140
4.5
170
     5
 62
     0
 63
     7
283
     0
274
    -2
284
     1
 64
     0
275
    -2
285
     1
 65
     0
276
    -2
286
     1
 66
     0
277
    -2
287
     1
 67
     0
278
    -2
288
     1
 68
     0
279
    -2
289
     1
 69
     0
  0
VISUALSTYLE
  5
531
102
{ACAD_XDICTIONARY
360
BD1
102
}
102
{ACAD_REACTORS
330
52B
102
}
330
52B
100
AcDbVisualStyle
  2
2dWireframe
 70
     4
 71
     0
 72
     2
 73
     0
 90
        0
 40
-0.6
 41
-30.0
 62
     5
 63
     7
 74
     1
 91
        4
 64
     7
 65
   257
 75
     1
175
     1
 42
1.0
 92
        0
 66
   257
 43
1.0
 76
     1
 77
     6
 78
     2
 67
     7
 79
     5
170
     0
171
     0
290
     0
174
     0
 93
        1
 44
0.0
173
     0
291
     0
 45
0.0
1001
ACAD
1000
AcDbSavedByObjectVersion
1070
     0
  0
VISUALSTYLE
  5
530
102
{ACAD_XDICTIONARY
360
BCF
102
}
102
{ACAD_REACTORS
330
52B
102
}
330
52B
100
AcDbVisualStyle
  2
Basic
 70
     7
 71
     1
 72
     0
 73
     1
 90
        0
 40
-0.6
 41
-30.0
 62
     5
 63
     7
 74
     0
 91
        4
 64
     7
 65
   257
 75
     1
175
     1
 42
1.0
 92
        8
 66
     7
 43
1.0
 76
     1
 77
     6
 78
     2
 67
     7
 79
     5
170
     0
171
     0
290
     0
174
     0
 93
        1
 44
0.0
173
     0
291
     1
 45
0.0
1001
ACAD
1000
AcDbSavedByObjectVersion
1070
     0
  0
VISUALSTYLE
  5
537
102
{ACAD_XDICTIONARY
360
BDD
102
}
102
{ACAD_REACTORS
330
52B
102
}
330
52B
100
AcDbVisualStyle
  2
Brighten
 70
    12
 71
     2
 72
     2
 73
     0
 90
        0
 40
-0.6
 41
-30.0
 62
     5
 63
     7
 74
     1
 91
        4
 64
     7
 65
   257
 75
     1
175
     1
 42
1.0
 92
        8
 66
     7
 43
1.0
 76
     1
 77
     6
 78
     2
 67
     7
 79
     5
170
     0
171
     0
290
     0
174
     0
 93
        1
 44
50.0
173
     0
291
     1
 45
0.0
1001
ACAD
1000
AcDbSavedByObjectVersion
1070
     0
  0
VISUALSTYLE
  5
53B
102
{ACAD_XDICTIONARY
360
BE5
102
}
102
{ACAD_REACTORS
330
52B
102
}
330
52B
100
AcDbVisualStyle
  2
ColorChange
 70
    16
 71
     2
 72
     2
 73
     3
 90
        0
 40
-0.6
 41
-30.0
 62
     5
 63
     8
 74
     1
 91
        4
 64
     7
 65
   257
 75
     1
175
     1
 42
1.0
 92
        8
 66
     8
 43
1.0
 76
     1
 77
     6
 78
     2
 67
     7
 79
     5
170
     0
171
     0
290
     0
174
     0
 93
        1
 44
0.0
173
     0
291
     1
 45
0.0
1001
ACAD
1000
AcDbSavedByObjectVersion
1070
     0
  0
VISUALSTYLE
  5
534
102
{ACAD_XDICTIONARY
360
BD7
102
}
102
{ACAD_REACTORS
330
52B
102
}
330
52B
100
AcDbVisualStyle
  2
Conceptual
 70
     9
 71
     3
 72
     2
 73
     0
 90
        0
 40
-0.6
 41
-30.0
 62
     5
 63
     7
 74
     2
 91
        2
 64
     7
 65
   257
 75
     1
175
     1
 42
179.0
 92
        8
 66
     7
 43
1.0
 76
     1
 77
     6
 78
     2
 67
     7
 79
     3
170
     0
171
     0
290
     0
174
     0
 93
        1
 44
0.0
173
     0
291
     0
 45
0.0
1001
ACAD
1000
AcDbSavedByObjectVersion
1070
     0
  0
VISUALSTYLE
  5
536
102
{ACAD_XDICTIONARY
360
BDB
102
}
102
{ACAD_REACTORS
330
52B
102
}
330
52B
100
AcDbVisualStyle
  2
Dim
 70
    11
 71
     2
 72
     2
 73
     0
 90
        0
 40
-0.6
 41
-30.0
 62
     5
 63
     7
 74
     1
 91
        4
 64
     7
 65
   257
 75
     1
175
     1
 42
1.0
 92
        8
 66
     7
 43
1.0
 76
     1
 77
     6
 78
     2
 67
     7
 79
     5
170
     0
171
     0
290
     0
174
     0
 93
        1
 44
-50.0
173
     0
291
     1
 45
0.0
1001
ACAD
1000
AcDbSavedByObjectVersion
1070
     0
  0
VISUALSTYLE
  5
543
102
{ACAD_XDICTIONARY
360
BF5
102
}
102
{ACAD_REACTORS
330
52B
102
}
330
52B
100
AcDbVisualStyle
  2
EdgeColorOff
 70
    22
 71
     2
 72
     2
 73
     0
 90
        0
 40
-0.6
 41
-30.0
 62
     5
 63
     7
 74
     1
 91
        4
 64
     7
 65
   257
 75
     1
175
     1
 42
1.0
 92
        8
 66
     7
 43
1.0
 76
     1
 77
     6
 78
     2
 67
     7
 79
     5
170
     0
171
     0
290
     0
174
     0
 93
        1
 44
0.0
173
     0
291
     1
 45
0.0
1001
ACAD
1000
AcDbSavedByObjectVersion
1070
     0
  0
VISUALSTYLE
  5
53A
102
{ACAD_XDICTIONARY
360
BE3
102
}
102
{ACAD_REACTORS
330
52B
102
}
330
52B
100
AcDbVisualStyle
  2
Facepattern
 70
    15
 71
     2
 72
     2
 73
     0
 90
        0
 40
-0.6
 41
-30.0
 62
     5
 63
     7
 74
     1
 91
        4
 64
     7
 65
   257
 75
     1
175
     1
 42
1.0
 92
        8
 66
     7
 43
1.0
 76
     1
 77
     6
 78
     2
 67
     7
 79
     5
170
     0
171
     0
290
     0
174
     0
 93
        1
 44
0.0
173
     0
291
     1
 45
0.0
1001
ACAD
1000
AcDbSavedByObjectVersion
1070
     0
  0
VISUALSTYLE
  5
52C
102
{ACAD_XDICTIONARY
360
BC7
102
}
102
{ACAD_REACTORS
330
52B
102
}
330
52B
100
AcDbVisualStyle
  2
Flat
 70
     0
 71
     2
 72
     1
 73
     1
 90
        2
 40
-0.6
 41
30.0
 62
     5
 63
     7
 74
     0
 91
        0
 64
     7
 65
   257
 75
     1
175
     1
 42
1.0
 92
        8
 66
     7
 43
1.0
 76
     1
 77
     6
 78
     2
 67
     7
 79
     5
170
     0
171
     0
290
     0
174
     0
 93
       13
 44
0.0
173
     0
291
     1
 45
0.0
1001
ACAD
1000
AcDbSavedByObjectVersion
1070
     0
  0
VISUALSTYLE
  5
52D
102
{ACAD_XDICTIONARY
360
BC9
102
}
102
{ACAD_REACTORS
330
52B
102
}
330
52B
100
AcDbVisualStyle
  2
FlatWithEdges
 70
     1
 71
     2
 72
     1
 73
     1
 90
        2
 40
-0.6
 41
30.0
 62
     5
 63
     7
 74
     1
 91
        0
 64
     7
 65
   257
 75
     1
175
     1
 42
1.0
 92
        0
 66
   257
 43
1.0
 76
     1
 77
     6
 78
     2
 67
     7
 79
     5
170
     0
171
     0
290
     0
174
     0
 93
       13
 44
0.0
173
     0
291
     1
 45
0.0
1001
ACAD
1000
AcDbSavedByObjectVersion
1070
     0
  0
VISUALSTYLE
  5
52E
102
{ACAD_XDICTIONARY
360
BCB
102
}
102
{ACAD_REACTORS
330
52B
102
}
330
52B
100
AcDbVisualStyle
  2
Gouraud
 70
     2
 71
     2
 72
     2
 73
     1
 90
        2
 40
-0.6
 41
30.0
 62
     5
 63
     7
 74
     0
 91
        0
 64
     7
 65
   257
 75
     1
175
     1
 42
1.0
 92
        0
 66
     7
 43
1.0
 76
     1
 77
     6
 78
     2
 67
     7
 79
     5
170
     0
171
     0
290
     0
174
     0
 93
       13
 44
0.0
173
     0
291
     1
 45
0.0
1001
ACAD
1000
AcDbSavedByObjectVersion
1070
     0
  0
VISUALSTYLE
  5
52F
102
{ACAD_XDICTIONARY
360
BCD
102
}
102
{ACAD_REACTORS
330
52B
102
}
330
52B
100
AcDbVisualStyle
  2
GouraudWithEdges
 70
     3
 71
     2
 72
     2
 73
     1
 90
        2
 40
-0.6
 41
30.0
 62
     5
 63
     7
 74
     1
 91
        0
 64
     7
 65
   257
 75
     1
175
     1
 42
1.0
 92
        0
 66
   257
 43
1.0
 76
     1
 77
     6
 78
     2
 67
     7
 79
     5
170
     0
171
     0
290
     0
174
     0
 93
       13
 44
0.0
173
     0
291
     1
 45
0.0
1001
ACAD
1000
AcDbSavedByObjectVersion
1070
     0
  0
VISUALSTYLE
  5
533
102
{ACAD_XDICTIONARY
360
BD5
102
}
102
{ACAD_REACTORS
330
52B
102
}
330
52B
100
AcDbVisualStyle
  2
Hidden
 70
     6
 71
     1
 72
     2
 73
     2
 90
        0
 40
-0.6
 41
-30.0
 62
     5
 63
     7
 74
     2
 91
        2
 64
     7
 65
   257
 75
     2
175
     1
 42
40.0
 92
        0
 66
   257
 43
1.0
 76
     1
 77
     6
 78
     2
 67
     7
 79
     3
170
     0
171
     0
290
     0
174
     0
 93
        1
 44
0.0
173
     0
291
     0
 45
0.0
1001
ACAD
1000
AcDbSavedByObjectVersion
1070
     0
  0
VISUALSTYLE
  5
541
102
{ACAD_XDICTIONARY
360
BF1
102
}
102
{ACAD_REACTORS
330
52B
102
}
330
52B
100
AcDbVisualStyle
  2
JitterOff
 70
    20
 71
     2
 72
     2
 73
     0
 90
        0
 40
-0.6
 41
-30.0
 62
     5
 63
     7
 74
     1
 91
        4
 64
     7
 65
   257
 75
     1
175
     1
 42
1.0
 92
       10
 66
     7
 43
1.0
 76
     1
 77
     6
 78
     2
 67
     7
 79
     5
170
     0
171
     0
290
     0
174
     0
 93
        1
 44
0.0
173
     0
291
     1
 45
0.0
1001
ACAD
1000
AcDbSavedByObjectVersion
1070
     0
  0
VISUALSTYLE
  5
539
102
{ACAD_XDICTIONARY
360
BE1
102
}
102
{ACAD_REACTORS
330
52B
102
}
330
52B
100
AcDbVisualStyle
  2
Linepattern
 70
    14
 71
     2
 72
     2
 73
     0
 90
        0
 40
-0.6
 41
-30.0
 62
     5
 63
     7
 74
     1
 91
        4
 64
     7
 65
   257
 75
     7
175
     7
 42
1.0
 92
        8
 66
     7
 43
1.0
 76
     1
 77
     6
 78
     2
 67
     7
 79
     5
170
     0
171
     0
290
     0
174
     0
 93
        1
 44
0.0
173
     0
291
     1
 45
0.0
1001
ACAD
1000
AcDbSavedByObjectVersion
1070
     0
  0
VISUALSTYLE
  5
542
102
{ACAD_XDICTIONARY
360
BF3
102
}
102
{ACAD_REACTORS
330
52B
102
}
330
52B
100
AcDbVisualStyle
  2
OverhangOff
 70
    21
 71
     2
 72
     2
 73
     0
 90
        0
 40
-0.6
 41
-30.0
 62
     5
 63
     7
 74
     1
 91
        4
 64
     7
 65
   257
 75
     1
175
     1
 42
1.0
 92
        9
 66
     7
 43
1.0
 76
     1
 77
     6
 78
     2
 67
     7
 79
     5
170
     0
171
     0
290
     0
174
     0
 93
        1
 44
0.0
173
     0
291
     1
 45
0.0
1001
ACAD
1000
AcDbSavedByObjectVersion
1070
     0
  0
VISUALSTYLE
  5
535
102
{ACAD_XDICTIONARY
360
BD9
102
}
102
{ACAD_REACTORS
330
52B
102
}
330
52B
100
AcDbVisualStyle
  2
Realistic
 70
     8
 71
     2
 72
     3
 73
     0
 90
        2
 40
-0.6
 41
30.0
 62
     5
 63
     7
 74
     0
 91
        0
 64
     7
 65
   257
 75
     1
175
     1
 42
1.0
 92
        8
 66
   257
 43
1.0
 76
     1
 77
     6
 78
     2
 67
     7
 79
     3
170
     0
171
     0
290
     0
174
     0
 93
       13
 44
0.0
173
     0
291
     0
 45
0.0
1001
ACAD
1000
AcDbSavedByObjectVersion
1070
     0
  0
VISUALSTYLE
  5
540
102
{ACAD_XDICTIONARY
360
BEF
102
}
102
{ACAD_REACTORS
330
52B
102
}
330
52B
100
AcDbVisualStyle
  2
Shaded
 70
    27
 71
     2
 72
     2
 73
     1
 90
        2
 40
-0.6
 41
30.0
 62
     5
 63
     7
 74
     0
 91
        4
 64
     7
 65
   257
 75
     1
175
     1
 42
1.0
 92
        8
 66
   257
 43
1.0
 76
     1
 77
     6
 78
     2
 67
     8
 79
     3
170
     0
171
     0
290
     0
174
     0
 93
        5
 44
0.0
173
     0
291
     0
 45
0.0
1001
ACAD
1000
AcDbSavedByObjectVersion
1070
     0
  0
VISUALSTYLE
  5
53F
102
{ACAD_XDICTIONARY
360
BED
102
}
102
{ACAD_REACTORS
330
52B
102
}
330
52B
100
AcDbVisualStyle
  2
Shaded with edges
 70
    26
 71
     2
 72
     2
 73
     1
 90
        2
 40
-0.6
 41
30.0
 62
     5
 63
     7
 74
     1
 91
       10
 64
     7
 65
   257
 75
     2
175
     1
 42
1.0
 92
        8
 66
   257
 43
1.0
 76
     1
 77
     6
 78
     2
 67
     7
 79
     3
170
     0
171
     0
290
     0
174
     0
 93
        5
 44
0.0
173
     0
291
     0
 45
0.0
1001
ACAD
1000
AcDbSavedByObjectVersion
1070
     0
  0
VISUALSTYLE
  5
53C
102
{ACAD_XDICTIONARY
360
BE7
102
}
102
{ACAD_REACTORS
330
52B
102
}
330
52B
100
AcDbVisualStyle
  2
Shades of Gray
 70
    23
 71
     2
 72
     2
 73
     3
 90
        0
 40
-0.6
 41
-30.0
 62
     5
 63
     7
 74
     2
 91
        2
 64
     7
 65
     7
 75
     1
175
     1
 42
40.0
 92
        8
 66
     7
 43
1.0
 76
     1
 77
     6
 78
     2
 67
     7
 79
     3
170
     0
171
     0
290
     0
174
     0
 93
        1
 44
0.0
173
     0
291
     0
 45
0.0
1001
ACAD
1000
AcDbSavedByObjectVersion
1070
     0
  0
VISUALSTYLE
  5
53D
102
{ACAD_XDICTIONARY
360
BE9
102
}
102
{ACAD_REACTORS
330
52B
102
}
330
52B
100
AcDbVisualStyle
  2
Sketchy
 70
    24
 71
     1
 72
     2
 73
     2
 90
        0
 40
-0.6
 41
-30.0
 62
     5
 63
     7
 74
     2
 91
        2
 64
     7
 65
     7
 75
     1
175
     1
 42
40.0
 92
       11
 66
     7
 43
1.0
 76
     1
 77
     6
 78
     2
 67
     7
 79
     6
170
     0
171
     0
290
     0
174
     0
 93
        1
 44
0.0
173
     0
291
     0
 45
0.0
1001
ACAD
1000
AcDbSavedByObjectVersion
1070
     0
  0
VISUALSTYLE
  5
538
102
{ACAD_XDICTIONARY
360
BDF
102
}
102
{ACAD_REACTORS
330
52B
102
}
330
52B
100
AcDbVisualStyle
  2
Thicken
 70
    13
 71
     2
 72
     2
 73
     0
 90
        0
 40
-0.6
 41
-30.0
 62
     5
 63
     7
 74
     1
 91
        4
 64
     7
 65
   257
 75
     1
175
     1
 42
1.0
 92
       12
 66
     7
 43
1.0
 76
     1
 77
     6
 78
     2
 67
     7
 79
     5
170
     0
171
     0
290
     0
174
     0
 93
        1
 44
0.0
173
     0
291
     1
 45
0.0
1001
ACAD
1000
AcDbSavedByObjectVersion
1070
     0
  0
VISUALSTYLE
  5
532
102
{ACAD_XDICTIONARY
360
BD3
102
}
102
{ACAD_REACTORS
330
52B
102
}
330
52B
100
AcDbVisualStyle
  2
Wireframe
 70
     5
 71
     0
 72
     2
 73
     0
 90
        0
 40
-0.6
 41
-30.0
 62
     5
 63
     7
 74
     1
 91
        4
 64
     7
 65
   257
 75
     1
175
     1
 42
1.0
 92
        0
 66
   257
 43
1.0
 76
     1
 77
     6
 78
     2
 67
     7
 79
     3
170
     0
171
     0
290
     0
174
     0
 93
        1
 44
0.0
173
     0
291
     0
 45
0.0
1001
ACAD
1000
AcDbSavedByObjectVersion
1070
     0
  0
VISUALSTYLE
  5
53E
102
{ACAD_XDICTIONARY
360
BEB
102
}
102
{ACAD_REACTORS
330
52B
102
}
330
52B
100
AcDbVisualStyle
  2
X-Ray
 70
    25
 71
     2
 72
     2
 73
     1
 90
        1
 40
0.5
 41
-30.0
 62
     5
 63
     7
 74
     1
 91
        0
 64
     7
 65
   257
 75
     1
175
     1
 42
1.0
 92
        8
 66
     7
 43
1.0
 76
     1
 77
     6
 78
     2
 67
     7
 79
     3
170
     0
171
     0
290
     0
174
     0
 93
       13
 44
0.0
173
     0
291
     0
 45
0.0
1001
ACAD
1000
AcDbSavedByObjectVersion
1070
     0
  0
DICTIONARYVAR
  5
BB6
102
{ACAD_REACTORS
330
BB1
102
}
330
BB1
100
DictionaryVariables
280
     0
  1
1:1
  0
DICTIONARYVAR
  5
BB3
102
{ACAD_REACTORS
330
BB1
102
}
330
BB1
100
DictionaryVariables
280
     0
  1
STANDARD
  0
DICTIONARYVAR
  5
BB2
102
{ACAD_REACTORS
330
BB1
102
}
330
BB1
100
DictionaryVariables
280
     0
  1
STANDARD
  0
DICTIONARYVAR
  5
BB4
102
{ACAD_REACTORS
330
BB1
102
}
330
BB1
100
DictionaryVariables
280
     0
  1
Metric50
  0
DICTIONARYVAR
  5
BB5
102
{ACAD_REACTORS
330
BB1
102
}
330
BB1
100
DictionaryVariables
280
     0
  1
Metric50
  0
DICTIONARYVAR
  5
BB9
102
{ACAD_REACTORS
330
BB1
102
}
330
BB1
100
DictionaryVariables
280
     0
  1
1
  0
DICTIONARYVAR
  5
BB8
102
{ACAD_REACTORS
330
BB1
102
}
330
BB1
100
DictionaryVariables
280
     0
  1
0
  0
DICTIONARYVAR
  5
BB7
102
{ACAD_REACTORS
330
BB1
102
}
330
BB1
100
DictionaryVariables
280
     0
  1
127
  0
DICTIONARYVAR
  5
BBA
102
{ACAD_REACTORS
330
BB1
102
}
330
BB1
100
DictionaryVariables
280
     0
  1
2
  0
DICTIONARY
  5
BC2
330
50F
100
AcDbDictionary
280
     1
281
     1
  3
ACAD_XREC_ROUNDTRIP
360
BC3
  0
DICTIONARY
  5
BC0
330
50E
100
AcDbDictionary
280
     1
281
     1
  3
ACAD_XREC_ROUNDTRIP
360
BC1
  0
DICTIONARY
  5
51C
330
51B
100
AcDbDictionary
280
     1
281
     1
  3
ACAD_XREC_ROUNDTRIP
360
BC5
  3
BUMPTILE
360
51E
  3
DIFFUSETILE
360
51D
  3
OPACITYTILE
360
521
  3
REFLECTIONTILE
360
520
  3
REFRACTIONTILE
360
522
  3
SPECULARTILE
360
51F
  0
DICTIONARY
  5
514
330
513
100
AcDbDictionary
280
     1
281
     1
  3
ACAD_XREC_ROUNDTRIP
360
BC4
  3
BUMPTILE
360
516
  3
DIFFUSETILE
360
515
  3
OPACITYTILE
360
519
  3
REFLECTIONTILE
360
518
  3
REFRACTIONTILE
360
51A
  3
SPECULARTILE
360
517
  0
DICTIONARY
  5
524
330
523
100
AcDbDictionary
280
     1
281
     1
  3
ACAD_XREC_ROUNDTRIP
360
BC6
  3
BUMPTILE
360
526
  3
DIFFUSETILE
360
525
  3
OPACITYTILE
360
529
  3
REFLECTIONTILE
360
528
  3
REFRACTIONTILE
360
52A
  3
SPECULARTILE
360
527
  0
DICTIONARY
  5
BBB
330
546
100
AcDbDictionary
280
     1
281
     1
  3
ACAD_ROUNDTRIP_2008_TABLESTYLE_CELLSTYLEMAP
360
BBC
  3
ACAD_XREC_ROUNDTRIP
360
BF7
  0
DICTIONARY
  5
BD1
330
531
100
AcDbDictionary
280
     1
281
     1
  3
ACAD_XREC_ROUNDTRIP
360
BD2
  0
DICTIONARY
  5
BCF
330
530
100
AcDbDictionary
280
     1
281
     1
  3
ACAD_XREC_ROUNDTRIP
360
BD0
  0
DICTIONARY
  5
BDD
330
537
100
AcDbDictionary
280
     1
281
     1
  3
ACAD_XREC_ROUNDTRIP
360
BDE
  0
DICTIONARY
  5
BE5
330
53B
100
AcDbDictionary
280
     1
281
     1
  3
ACAD_XREC_ROUNDTRIP
360
BE6
  0
DICTIONARY
  5
BD7
330
534
100
AcDbDictionary
280
     1
281
     1
  3
ACAD_XREC_ROUNDTRIP
360
BD8
  0
DICTIONARY
  5
BDB
330
536
100
AcDbDictionary
280
     1
281
     1
  3
ACAD_XREC_ROUNDTRIP
360
BDC
  0
DICTIONARY
  5
BF5
330
543
100
AcDbDictionary
280
     1
281
     1
  3
ACAD_XREC_ROUNDTRIP
360
BF6
  0
DICTIONARY
  5
BE3
330
53A
100
AcDbDictionary
280
     1
281
     1
  3
ACAD_XREC_ROUNDTRIP
360
BE4
  0
DICTIONARY
  5
BC7
330
52C
100
AcDbDictionary
280
     1
281
     1
  3
ACAD_XREC_ROUNDTRIP
360
BC8
  0
DICTIONARY
  5
BC9
330
52D
100
AcDbDictionary
280
     1
281
     1
  3
ACAD_XREC_ROUNDTRIP
360
BCA
  0
DICTIONARY
  5
BCB
330
52E
100
AcDbDictionary
280
     1
281
     1
  3
ACAD_XREC_ROUNDTRIP
360
BCC
  0
DICTIONARY
  5
BCD
330
52F
100
AcDbDictionary
280
     1
281
     1
  3
ACAD_XREC_ROUNDTRIP
360
BCE
  0
DICTIONARY
  5
BD5
330
533
100
AcDbDictionary
280
     1
281
     1
  3
ACAD_XREC_ROUNDTRIP
360
BD6
  0
DICTIONARY
  5
BF1
330
541
100
AcDbDictionary
280
     1
281
     1
  3
ACAD_XREC_ROUNDTRIP
360
BF2
  0
DICTIONARY
  5
BE1
330
539
100
AcDbDictionary
280
     1
281
     1
  3
ACAD_XREC_ROUNDTRIP
360
BE2
  0
DICTIONARY
  5
BF3
330
542
100
AcDbDictionary
280
     1
281
     1
  3
ACAD_XREC_ROUNDTRIP
360
BF4
  0
DICTIONARY
  5
BD9
330
535
100
AcDbDictionary
280
     1
281
     1
  3
ACAD_XREC_ROUNDTRIP
360
BDA
  0
DICTIONARY
  5
BEF
330
540
100
AcDbDictionary
280
     1
281
     1
  3
ACAD_XREC_ROUNDTRIP
360
BF0
  0
DICTIONARY
  5
BED
330
53F
100
AcDbDictionary
280
     1
281
     1
  3
ACAD_XREC_ROUNDTRIP
360
BEE
  0
DICTIONARY
  5
BE7
330
53C
100
AcDbDictionary
280
     1
281
     1
  3
ACAD_XREC_ROUNDTRIP
360
BE8
  0
DICTIONARY
  5
BE9
330
53D
100
AcDbDictionary
280
     1
281
     1
  3
ACAD_XREC_ROUNDTRIP
360
BEA
  0
DICTIONARY
  5
BDF
330
538
100
AcDbDictionary
280
     1
281
     1
  3
ACAD_XREC_ROUNDTRIP
360
BE0
  0
DICTIONARY
  5
BD3
330
532
100
AcDbDictionary
280
     1
281
     1
  3
ACAD_XREC_ROUNDTRIP
360
BD4
  0
DICTIONARY
  5
BEB
330
53E
100
AcDbDictionary
280
     1
281
     1
  3
ACAD_XREC_ROUNDTRIP
360
BEC
  0
XRECORD
  5
BC3
102
{ACAD_REACTORS
330
BC2
102
}
330
BC2
100
AcDbXrecord
280
     1
102
SHADEPLOT
 70
     0
102
SHADEPLOTRESLEVEL
 70
     2
102
SHADEPLOTCUSTOMDPI
 70
   300
  0
XRECORD
  5
BC1
102
{ACAD_REACTORS
330
BC0
102
}
330
BC0
100
AcDbXrecord
280
     1
102
SHADEPLOT
 70
     0
102
SHADEPLOTRESLEVEL
 70
     2
102
SHADEPLOTCUSTOMDPI
 70
   300
  0
XRECORD
  5
BC5
102
{ACAD_REACTORS
330
51C
102
}
330
51C
100
AcDbXrecord
280
     1
102
MATERIAL
148
0.0
149
0.0
149
0.0
 93
        0
 94
      127
282
     0
 72
     0
 77
     0
171
     0
175
     0
179
     0
273
     0
  0
XRECORD
  5
51E
102
{ACAD_REACTORS
330
51C
102
}
330
51C
100
AcDbXrecord
280
     1
270
     1
271
     1
  0
XRECORD
  5
51D
102
{ACAD_REACTORS
330
51C
102
}
330
51C
100
AcDbXrecord
280
     1
270
     1
271
     1
  0
XRECORD
  5
521
102
{ACAD_REACTORS
330
51C
102
}
330
51C
100
AcDbXrecord
280
     1
270
     1
271
     1
  0
XRECORD
  5
520
102
{ACAD_REACTORS
330
51C
102
}
330
51C
100
AcDbXrecord
280
     1
270
     1
271
     1
  0
XRECORD
  5
522
102
{ACAD_REACTORS
330
51C
102
}
330
51C
100
AcDbXrecord
280
     1
270
     1
271
     1
  0
XRECORD
  5
51F
102
{ACAD_REACTORS
330
51C
102
}
330
51C
100
AcDbXrecord
280
     1
270
     1
271
     1
  0
XRECORD
  5
BC4
102
{ACAD_REACTORS
330
514
102
}
330
514
100
AcDbXrecord
280
     1
102
MATERIAL
148
0.0
149
0.0
149
0.0
 93
        0
 94
      127
282
     0
 72
     0
 77
     0
171
     0
175
     0
179
     0
273
     0
  0
XRECORD
  5
516
102
{ACAD_REACTORS
330
514
102
}
330
514
100
AcDbXrecord
280
     1
270
     1
271
     1
  0
XRECORD
  5
515
102
{ACAD_REACTORS
330
514
102
}
330
514
100
AcDbXrecord
280
     1
270
     1
271
     1
  0
XRECORD
  5
519
102
{ACAD_REACTORS
330
514
102
}
330
514
100
AcDbXrecord
280
     1
270
     1
271
     1
  0
XRECORD
  5
518
102
{ACAD_REACTORS
330
514
102
}
330
514
100
AcDbXrecord
280
     1
270
     1
271
     1
  0
XRECORD
  5
51A
102
{ACAD_REACTORS
330
514
102
}
330
514
100
AcDbXrecord
280
     1
270
     1
271
     1
  0
XRECORD
  5
517
102
{ACAD_REACTORS
330
514
102
}
330
514
100
AcDbXrecord
280
     1
270
     1
271
     1
  0
XRECORD
  5
BC6
102
{ACAD_REACTORS
330
524
102
}
330
524
100
AcDbXrecord
280
     1
102
MATERIAL
148
0.0
149
0.0
149
0.0
 93
        0
 94
      127
282
     0
 72
     0
 77
     0
171
     0
175
     0
179
     0
273
     0
  0
XRECORD
  5
526
102
{ACAD_REACTORS
330
524
102
}
330
524
100
AcDbXrecord
280
     1
270
     1
271
     1
  0
XRECORD
  5
525
102
{ACAD_REACTORS
330
524
102
}
330
524
100
AcDbXrecord
280
     1
270
     1
271
     1
  0
XRECORD
  5
529
102
{ACAD_REACTORS
330
524
102
}
330
524
100
AcDbXrecord
280
     1
270
     1
271
     1
  0
XRECORD
  5
528
102
{ACAD_REACTORS
330
524
102
}
330
524
100
AcDbXrecord
280
     1
270
     1
271
     1
  0
XRECORD
  5
52A
102
{ACAD_REACTORS
330
524
102
}
330
524
100
AcDbXrecord
280
     1
270
     1
271
     1
  0
XRECORD
  5
527
102
{ACAD_REACTORS
330
524
102
}
330
524
100
AcDbXrecord
280
     1
270
     1
271
     1
  0
CELLSTYLEMAP
  5
BBC
102
{ACAD_REACTORS
330
BBB
102
}
330
BBB
100
AcDbCellStyleMap
 90
        3
300
CELLSTYLE
  1
TABLEFORMAT_BEGIN
 90
        5
170
     1
 91
        0
 92
    32768
 62
   257
 93
        1
300
CONTENTFORMAT
  1
CONTENTFORMAT_BEGIN
 90
        0
 91
        0
 92
      512
 93
        0
300

 40
0.0
140
1.0
 94
        5
 62
     0
340
11
144
6.0
309
CONTENTFORMAT_END
171
     1
301
MARGIN
  1
CELLMARGIN_BEGIN
 40
1.5
 40
1.5
 40
1.5
 40
1.5
 40
4.5
 40
4.5
309
CELLMARGIN_END
 94
        6
 95
        1
302
GRIDFORMAT
  1
GRIDFORMAT_BEGIN
 90
        0
 91
        1
 62
     0
 92
       -2
340
0
 93
        0
 40
1.125
309
GRIDFORMAT_END
 95
        2
302
GRIDFORMAT
  1
GRIDFORMAT_BEGIN
 90
        0
 91
        1
 62
     0
 92
       -2
340
0
 93
        0
 40
1.125
309
GRIDFORMAT_END
 95
        4
302
GRIDFORMAT
  1
GRIDFORMAT_BEGIN
 90
        0
 91
        1
 62
     0
 92
       -2
340
0
 93
        0
 40
1.125
309
GRIDFORMAT_END
 95
        8
302
GRIDFORMAT
  1
GRIDFORMAT_BEGIN
 90
        0
 91
        1
 62
     0
 92
       -2
340
0
 93
        0
 40
1.125
309
GRIDFORMAT_END
 95
       16
302
GRIDFORMAT
  1
GRIDFORMAT_BEGIN
 90
        0
 91
        1
 62
     0
 92
       -2
340
0
 93
        0
 40
1.125
309
GRIDFORMAT_END
 95
       32
302
GRIDFORMAT
  1
GRIDFORMAT_BEGIN
 90
        0
 91
        1
 62
     0
 92
       -2
340
0
 93
        0
 40
1.125
309
GRIDFORMAT_END
309
TABLEFORMAT_END
  1
CELLSTYLE_BEGIN
 90
        1
 91
        1
300
_TITLE
309
CELLSTYLE_END
300
CELLSTYLE
  1
TABLEFORMAT_BEGIN
 90
        5
170
     1
 91
        0
 92
        0
 62
   257
 93
        1
300
CONTENTFORMAT
  1
CONTENTFORMAT_BEGIN
 90
        0
 91
        0
 92
      512
 93
        0
300

 40
0.0
140
1.0
 94
        5
 62
     0
340
11
144
4.5
309
CONTENTFORMAT_END
171
     1
301
MARGIN
  1
CELLMARGIN_BEGIN
 40
1.5
 40
1.5
 40
1.5
 40
1.5
 40
4.5
 40
4.5
309
CELLMARGIN_END
 94
        6
 95
        1
302
GRIDFORMAT
  1
GRIDFORMAT_BEGIN
 90
        0
 91
        1
 62
     0
 92
       -2
340
0
 93
        0
 40
1.125
309
GRIDFORMAT_END
 95
        2
302
GRIDFORMAT
  1
GRIDFORMAT_BEGIN
 90
        0
 91
        1
 62
     0
 92
       -2
340
0
 93
        0
 40
1.125
309
GRIDFORMAT_END
 95
        4
302
GRIDFORMAT
  1
GRIDFORMAT_BEGIN
 90
        0
 91
        1
 62
     0
 92
       -2
340
0
 93
        0
 40
1.125
309
GRIDFORMAT_END
 95
        8
302
GRIDFORMAT
  1
GRIDFORMAT_BEGIN
 90
        0
 91
        1
 62
     0
 92
       -2
340
0
 93
        0
 40
1.125
309
GRIDFORMAT_END
 95
       16
302
GRIDFORMAT
  1
GRIDFORMAT_BEGIN
 90
        0
 91
        1
 62
     0
 92
       -2
340
0
 93
        0
 40
1.125
309
GRIDFORMAT_END
 95
       32
302
GRIDFORMAT
  1
GRIDFORMAT_BEGIN
 90
        0
 91
        1
 62
     0
 92
       -2
340
0
 93
        0
 40
1.125
309
GRIDFORMAT_END
309
TABLEFORMAT_END
  1
CELLSTYLE_BEGIN
 90
        2
 91
        1
300
_HEADER
309
CELLSTYLE_END
300
CELLSTYLE
  1
TABLEFORMAT_BEGIN
 90
        5
170
     1
 91
        0
 92
        0
 62
   257
 93
        1
300
CONTENTFORMAT
  1
CONTENTFORMAT_BEGIN
 90
        0
 91
        0
 92
      512
 93
        0
300

 40
0.0
140
1.0
 94
        2
 62
     0
340
11
144
4.5
309
CONTENTFORMAT_END
171
     1
301
MARGIN
  1
CELLMARGIN_BEGIN
 40
1.5
 40
1.5
 40
1.5
 40
1.5
 40
4.5
 40
4.5
309
CELLMARGIN_END
 94
        6
 95
        1
302
GRIDFORMAT
  1
GRIDFORMAT_BEGIN
 90
        0
 91
        1
 62
     0
 92
       -2
340
0
 93
        0
 40
1.125
309
GRIDFORMAT_END
 95
        2
302
GRIDFORMAT
  1
GRIDFORMAT_BEGIN
 90
        0
 91
        1
 62
     0
 92
       -2
340
0
 93
        0
 40
1.125
309
GRIDFORMAT_END
 95
        4
302
GRIDFORMAT
  1
GRIDFORMAT_BEGIN
 90
        0
 91
        1
 62
     0
 92
       -2
340
0
 93
        0
 40
1.125
309
GRIDFORMAT_END
 95
        8
302
GRIDFORMAT
  1
GRIDFORMAT_BEGIN
 90
        0
 91
        1
 62
     0
 92
       -2
340
0
 93
        0
 40
1.125
309
GRIDFORMAT_END
 95
       16
302
GRIDFORMAT
  1
GRIDFORMAT_BEGIN
 90
        0
 91
        1
 62
     0
 92
       -2
340
0
 93
        0
 40
1.125
309
GRIDFORMAT_END
 95
       32
302
GRIDFORMAT
  1
GRIDFORMAT_BEGIN
 90
        0
 91
        1
 62
     0
 92
       -2
340
0
 93
        0
 40
1.125
309
GRIDFORMAT_END
309
TABLEFORMAT_END
  1
CELLSTYLE_BEGIN
 90
        3
 91
        2
300
_DATA
309
CELLSTYLE_END
  0
XRECORD
  5
BF7
102
{ACAD_REACTORS
330
BBB
102
}
330
BBB
100
AcDbXrecord
280
     1
102
ACAD_ROUNDTRIP_PRE2007_TABLESTYLE
 90
      512
 91
        0
  1

 92
      512
 93
        0
  2

 94
      512
 95
        0
  3

  0
XRECORD
  5
BD2
102
{ACAD_REACTORS
330
BD1
102
}
330
BD1
100
AcDbXrecord
280
     1
102
RTVSPost2010Prop28
280
     1
102
RTVSPost2010PropOp28
 70
     1
102
RTVSPost2010Prop29
280
     1
102
RTVSPost2010PropOp29
 70
     1
102
RTVSPost2010Prop30
280
     0
102
RTVSPost2010PropOp30
 70
     1
102
RTVSPost2010Prop31
280
     0
102
RTVSPost2010PropOp31
 70
     1
102
RTVSPost2010Prop32
280
     0
102
RTVSPost2010PropOp32
 70
     1
102
RTVSPost2010Prop33
280
     0
102
RTVSPost2010PropOp33
 70
     1
102
RTVSPost2010Prop34
280
     0
102
RTVSPost2010PropOp34
 70
     1
102
RTVSPost2010Prop35
280
     0
102
RTVSPost2010PropOp35
 70
     1
102
RTVSPost2010Prop36
280
     0
102
RTVSPost2010PropOp36
 70
     1
102
RTVSPost2010Prop37
 90
       50
102
RTVSPost2010PropOp37
 70
     1
102
RTVSPost2010Prop38
140
0.0
102
RTVSPost2010PropOp38
 70
     1
102
RTVSPost2010Prop39
140
1.0
102
RTVSPost2010PropOp39
 70
     1
102
RTVSPost2010Prop40
 90
        0
102
RTVSPost2010PropOp40
 70
     1
102
RTVSPost2010Prop41ColorIndex
 90
       18
102
RTVSPost2010Prop41ColorRGB
 90
        0
102
RTVSPost2010PropOp41
 70
     1
102
RTVSPost2010Prop42
 90
       50
102
RTVSPost2010PropOp42
 70
     1
102
RTVSPost2010Prop43
 90
        3
102
RTVSPost2010PropOp43
 70
     1
102
RTVSPost2010Prop44ColorIndex
 90
        5
102
RTVSPost2010Prop44ColorRGB
 90
      255
102
RTVSPost2010PropOp44
 70
     1
102
RTVSPost2010Prop45
280
     0
102
RTVSPost2010PropOp45
 70
     1
102
RTVSPost2010Prop46
 90
       50
102
RTVSPost2010PropOp46
 70
     1
102
RTVSPost2010Prop47
 90
       50
102
RTVSPost2010PropOp47
 70
     1
102
RTVSPost2010Prop48
 90
       50
102
RTVSPost2010PropOp48
 70
     1
102
RTVSPost2010Prop49
280
     0
102
RTVSPost2010PropOp49
 70
     1
102
RTVSPost2010Prop50
 90
       50
102
RTVSPost2010PropOp50
 70
     1
102
RTVSPost2010Prop51ColorIndex
 90
      256
102
RTVSPost2010Prop51ColorRGB
 90
-16777216
102
RTVSPost2010PropOp51
 70
     0
102
RTVSPost2010Prop52
140
1.0
102
RTVSPost2010PropOp52
 70
     0
102
RTVSPost2010Prop53
 90
        2
102
RTVSPost2010PropOp53
 70
     1
102
RTVSPost2010Prop54
  1
strokes_ogs.tif
102
RTVSPost2010PropOp54
 70
     1
102
RTVSPost2010Prop55
280
     0
102
RTVSPost2010PropOp55
 70
     1
102
RTVSPost2010Prop56
140
1.0
102
RTVSPost2010PropOp56
 70
     1
102
RTVSPost2010Prop57
140
1.0
102
RTVSPost2010PropOp57
 70
     1
102
RTVSPropertyOp0
 70
     1
102
RTVSPropertyOp1
 70
     1
102
RTVSPropertyOp2
 70
     1
102
RTVSPropertyOp3
 70
     1
102
RTVSPropertyOp4
 70
     1
102
RTVSPropertyOp5
 70
     1
102
RTVSPropertyOp6
 70
     1
102
RTVSPropertyOp7
 70
     1
102
RTVSPropertyOp8
 70
     1
102
RTVSPropertyOp9
 70
     1
102
RTVSPropertyOp10
 70
     1
102
RTVSPropertyOp11
 70
     1
102
RTVSPropertyOp12
 70
     1
102
RTVSPropertyOp13
 70
     1
102
RTVSPropertyOp14
 70
     1
102
RTVSPropertyOp15
 70
     1
102
RTVSPropertyOp16
 70
     1
102
RTVSPropertyOp17
 70
     1
102
RTVSPropertyOp18
 70
     1
102
RTVSPropertyOp19
 70
     1
102
RTVSPropertyOp20
 70
     1
102
RTVSPropertyOp21
 70
     1
102
RTVSPropertyOp22
 70
     1
102
RTVSPropertyOp23
 70
     1
102
RTVSPropertyOp24
 70
     1
102
RTVSPropertyOp25
 70
     1
102
RTVSPropertyOp26
 70
     1
102
RTVSPropertyOp27
 70
     1
102
RTVSPropertyOp28
 70
     1
102
RTVSPropertyOp29
 70
     1
102
RTVSPropertyOp30
 70
     1
102
RTVSPropertyOp31
 70
     1
102
RTVSPropertyOp32
 70
     1
102
RTVSPropertyOp33
 70
     1
102
RTVSPropertyOp34
 70
     1
102
RTVSPropertyOp35
 70
     1
102
RTVSPropertyOp36
 70
     1
102
RTVSPropertyOp37
 70
     1
102
RTVSPropertyOp38
 70
     1
102
RTVSPropertyOp39
 70
     1
102
RTVSPropertyOp40
 70
     1
102
RTVSPropertyOp41
 70
     1
102
RTVSPropertyOp42
 70
     1
102
RTVSPropertyOp43
 70
     1
102
RTVSPropertyOp44
 70
     1
102
RTVSPropertyOp45
 70
     1
102
RTVSPropertyOp46
 70
     1
102
RTVSPropertyOp47
 70
     1
102
RTVSPropertyOp48
 70
     1
102
RTVSPropertyOp49
 70
     1
102
RTVSPropertyOp50
 70
     1
102
RTVSPropertyOp51
 70
     0
102
RTVSPropertyOp52
 70
     0
102
RTVSPropertyOp53
 70
     1
102
RTVSPropertyOp54
 70
     1
102
RTVSPropertyOp55
 70
     1
102
RTVSPropertyOp56
 70
     1
102
RTVSPropertyOp57
 70
     1
102
RTVSPropertyOp58
 70
     1
102
RTVSPropertyOp59
 70
     1
102
RTVSPropertyOp60
 70
     1
102
RTVSPropertyOp61
 70
     1
102
RTVSPropertyOp62
 70
     1
  0
XRECORD
  5
BD0
102
{ACAD_REACTORS
330
BCF
102
}
330
BCF
100
AcDbXrecord
280
     1
102
RTVSPost2010Prop28
280
     0
102
RTVSPost2010PropOp28
 70
     1
102
RTVSPost2010Prop29
280
     1
102
RTVSPost2010PropOp29
 70
     1
102
RTVSPost2010Prop30
280
     1
102
RTVSPost2010PropOp30
 70
     1
102
RTVSPost2010Prop31
280
     0
102
RTVSPost2010PropOp31
 70
     1
102
RTVSPost2010Prop32
280
     0
102
RTVSPost2010PropOp32
 70
     1
102
RTVSPost2010Prop33
280
     0
102
RTVSPost2010PropOp33
 70
     1
102
RTVSPost2010Prop34
280
     0
102
RTVSPost2010PropOp34
 70
     1
102
RTVSPost2010Prop35
280
     0
102
RTVSPost2010PropOp35
 70
     1
102
RTVSPost2010Prop36
280
     0
102
RTVSPost2010PropOp36
 70
     1
102
RTVSPost2010Prop37
 90
       50
102
RTVSPost2010PropOp37
 70
     1
102
RTVSPost2010Prop38
140
0.0
102
RTVSPost2010PropOp38
 70
     1
102
RTVSPost2010Prop39
140
1.0
102
RTVSPost2010PropOp39
 70
     1
102
RTVSPost2010Prop40
 90
        0
102
RTVSPost2010PropOp40
 70
     1
102
RTVSPost2010Prop41ColorIndex
 90
       18
102
RTVSPost2010Prop41ColorRGB
 90
        0
102
RTVSPost2010PropOp41
 70
     1
102
RTVSPost2010Prop42
 90
       50
102
RTVSPost2010PropOp42
 70
     1
102
RTVSPost2010Prop43
 90
        3
102
RTVSPost2010PropOp43
 70
     1
102
RTVSPost2010Prop44ColorIndex
 90
        5
102
RTVSPost2010Prop44ColorRGB
 90
      255
102
RTVSPost2010PropOp44
 70
     1
102
RTVSPost2010Prop45
280
     0
102
RTVSPost2010PropOp45
 70
     1
102
RTVSPost2010Prop46
 90
       50
102
RTVSPost2010PropOp46
 70
     1
102
RTVSPost2010Prop47
 90
       50
102
RTVSPost2010PropOp47
 70
     1
102
RTVSPost2010Prop48
 90
       50
102
RTVSPost2010PropOp48
 70
     1
102
RTVSPost2010Prop49
280
     0
102
RTVSPost2010PropOp49
 70
     1
102
RTVSPost2010Prop50
 90
       50
102
RTVSPost2010PropOp50
 70
     1
102
RTVSPost2010Prop51ColorIndex
 90
      256
102
RTVSPost2010Prop51ColorRGB
 90
-16777216
102
RTVSPost2010PropOp51
 70
     0
102
RTVSPost2010Prop52
140
1.0
102
RTVSPost2010PropOp52
 70
     0
102
RTVSPost2010Prop53
 90
        2
102
RTVSPost2010PropOp53
 70
     1
102
RTVSPost2010Prop54
  1
strokes_ogs.tif
102
RTVSPost2010PropOp54
 70
     1
102
RTVSPost2010Prop55
280
     0
102
RTVSPost2010PropOp55
 70
     1
102
RTVSPost2010Prop56
140
1.0
102
RTVSPost2010PropOp56
 70
     1
102
RTVSPost2010Prop57
140
1.0
102
RTVSPost2010PropOp57
 70
     1
102
RTVSPropertyOp0
 70
     1
102
RTVSPropertyOp1
 70
     1
102
RTVSPropertyOp2
 70
     1
102
RTVSPropertyOp3
 70
     1
102
RTVSPropertyOp4
 70
     1
102
RTVSPropertyOp5
 70
     1
102
RTVSPropertyOp6
 70
     1
102
RTVSPropertyOp7
 70
     1
102
RTVSPropertyOp8
 70
     1
102
RTVSPropertyOp9
 70
     1
102
RTVSPropertyOp10
 70
     1
102
RTVSPropertyOp11
 70
     1
102
RTVSPropertyOp12
 70
     1
102
RTVSPropertyOp13
 70
     1
102
RTVSPropertyOp14
 70
     1
102
RTVSPropertyOp15
 70
     1
102
RTVSPropertyOp16
 70
     1
102
RTVSPropertyOp17
 70
     1
102
RTVSPropertyOp18
 70
     1
102
RTVSPropertyOp19
 70
     1
102
RTVSPropertyOp20
 70
     1
102
RTVSPropertyOp21
 70
     1
102
RTVSPropertyOp22
 70
     1
102
RTVSPropertyOp23
 70
     1
102
RTVSPropertyOp24
 70
     1
102
RTVSPropertyOp25
 70
     1
102
RTVSPropertyOp26
 70
     1
102
RTVSPropertyOp27
 70
     1
102
RTVSPropertyOp28
 70
     1
102
RTVSPropertyOp29
 70
     1
102
RTVSPropertyOp30
 70
     1
102
RTVSPropertyOp31
 70
     1
102
RTVSPropertyOp32
 70
     1
102
RTVSPropertyOp33
 70
     1
102
RTVSPropertyOp34
 70
     1
102
RTVSPropertyOp35
 70
     1
102
RTVSPropertyOp36
 70
     1
102
RTVSPropertyOp37
 70
     1
102
RTVSPropertyOp38
 70
     1
102
RTVSPropertyOp39
 70
     1
102
RTVSPropertyOp40
 70
     1
102
RTVSPropertyOp41
 70
     1
102
RTVSPropertyOp42
 70
     1
102
RTVSPropertyOp43
 70
     1
102
RTVSPropertyOp44
 70
     1
102
RTVSPropertyOp45
 70
     1
102
RTVSPropertyOp46
 70
     1
102
RTVSPropertyOp47
 70
     1
102
RTVSPropertyOp48
 70
     1
102
RTVSPropertyOp49
 70
     1
102
RTVSPropertyOp50
 70
     1
102
RTVSPropertyOp51
 70
     0
102
RTVSPropertyOp52
 70
     0
102
RTVSPropertyOp53
 70
     1
102
RTVSPropertyOp54
 70
     1
102
RTVSPropertyOp55
 70
     1
102
RTVSPropertyOp56
 70
     1
102
RTVSPropertyOp57
 70
     1
102
RTVSPropertyOp58
 70
     1
102
RTVSPropertyOp59
 70
     1
102
RTVSPropertyOp60
 70
     1
102
RTVSPropertyOp61
 70
     1
102
RTVSPropertyOp62
 70
     1
  0
XRECORD
  5
BDE
102
{ACAD_REACTORS
330
BDD
102
}
330
BDD
100
AcDbXrecord
280
     1
102
RTVSPost2010Prop28
280
     0
102
RTVSPost2010PropOp28
 70
     1
102
RTVSPost2010Prop29
280
     1
102
RTVSPost2010PropOp29
 70
     1
102
RTVSPost2010Prop30
280
     1
102
RTVSPost2010PropOp30
 70
     1
102
RTVSPost2010Prop31
280
     0
102
RTVSPost2010PropOp31
 70
     1
102
RTVSPost2010Prop32
280
     0
102
RTVSPost2010PropOp32
 70
     1
102
RTVSPost2010Prop33
280
     0
102
RTVSPost2010PropOp33
 70
     1
102
RTVSPost2010Prop34
280
     0
102
RTVSPost2010PropOp34
 70
     1
102
RTVSPost2010Prop35
280
     0
102
RTVSPost2010PropOp35
 70
     1
102
RTVSPost2010Prop36
280
     0
102
RTVSPost2010PropOp36
 70
     1
102
RTVSPost2010Prop37
 90
       50
102
RTVSPost2010PropOp37
 70
     1
102
RTVSPost2010Prop38
140
0.0
102
RTVSPost2010PropOp38
 70
     1
102
RTVSPost2010Prop39
140
1.0
102
RTVSPost2010PropOp39
 70
     1
102
RTVSPost2010Prop40
 90
        0
102
RTVSPost2010PropOp40
 70
     1
102
RTVSPost2010Prop41ColorIndex
 90
       18
102
RTVSPost2010Prop41ColorRGB
 90
        0
102
RTVSPost2010PropOp41
 70
     1
102
RTVSPost2010Prop42
 90
       50
102
RTVSPost2010PropOp42
 70
     1
102
RTVSPost2010Prop43
 90
        3
102
RTVSPost2010PropOp43
 70
     1
102
RTVSPost2010Prop44ColorIndex
 90
        5
102
RTVSPost2010Prop44ColorRGB
 90
      255
102
RTVSPost2010PropOp44
 70
     1
102
RTVSPost2010Prop45
280
     0
102
RTVSPost2010PropOp45
 70
     1
102
RTVSPost2010Prop46
 90
       50
102
RTVSPost2010PropOp46
 70
     1
102
RTVSPost2010Prop47
 90
       50
102
RTVSPost2010PropOp47
 70
     1
102
RTVSPost2010Prop48
 90
       50
102
RTVSPost2010PropOp48
 70
     1
102
RTVSPost2010Prop49
280
     0
102
RTVSPost2010PropOp49
 70
     1
102
RTVSPost2010Prop50
 90
       50
102
RTVSPost2010PropOp50
 70
     1
102
RTVSPost2010Prop51ColorIndex
 90
      256
102
RTVSPost2010Prop51ColorRGB
 90
-16777216
102
RTVSPost2010PropOp51
 70
     0
102
RTVSPost2010Prop52
140
1.0
102
RTVSPost2010PropOp52
 70
     0
102
RTVSPost2010Prop53
 90
        2
102
RTVSPost2010PropOp53
 70
     1
102
RTVSPost2010Prop54
  1
strokes_ogs.tif
102
RTVSPost2010PropOp54
 70
     1
102
RTVSPost2010Prop55
280
     0
102
RTVSPost2010PropOp55
 70
     1
102
RTVSPost2010Prop56
140
1.0
102
RTVSPost2010PropOp56
 70
     1
102
RTVSPost2010Prop57
140
1.0
102
RTVSPost2010PropOp57
 70
     1
102
RTVSPropertyOp0
 70
     1
102
RTVSPropertyOp1
 70
     1
102
RTVSPropertyOp2
 70
     1
102
RTVSPropertyOp3
 70
     1
102
RTVSPropertyOp4
 70
     1
102
RTVSPropertyOp5
 70
     1
102
RTVSPropertyOp6
 70
     1
102
RTVSPropertyOp7
 70
     1
102
RTVSPropertyOp8
 70
     1
102
RTVSPropertyOp9
 70
     1
102
RTVSPropertyOp10
 70
     1
102
RTVSPropertyOp11
 70
     1
102
RTVSPropertyOp12
 70
     1
102
RTVSPropertyOp13
 70
     1
102
RTVSPropertyOp14
 70
     1
102
RTVSPropertyOp15
 70
     1
102
RTVSPropertyOp16
 70
     1
102
RTVSPropertyOp17
 70
     1
102
RTVSPropertyOp18
 70
     1
102
RTVSPropertyOp19
 70
     1
102
RTVSPropertyOp20
 70
     1
102
RTVSPropertyOp21
 70
     1
102
RTVSPropertyOp22
 70
     1
102
RTVSPropertyOp23
 70
     1
102
RTVSPropertyOp24
 70
     1
102
RTVSPropertyOp25
 70
     1
102
RTVSPropertyOp26
 70
     1
102
RTVSPropertyOp27
 70
     1
102
RTVSPropertyOp28
 70
     1
102
RTVSPropertyOp29
 70
     1
102
RTVSPropertyOp30
 70
     1
102
RTVSPropertyOp31
 70
     1
102
RTVSPropertyOp32
 70
     1
102
RTVSPropertyOp33
 70
     1
102
RTVSPropertyOp34
 70
     1
102
RTVSPropertyOp35
 70
     1
102
RTVSPropertyOp36
 70
     1
102
RTVSPropertyOp37
 70
     1
102
RTVSPropertyOp38
 70
     1
102
RTVSPropertyOp39
 70
     1
102
RTVSPropertyOp40
 70
     1
102
RTVSPropertyOp41
 70
     1
102
RTVSPropertyOp42
 70
     1
102
RTVSPropertyOp43
 70
     1
102
RTVSPropertyOp44
 70
     1
102
RTVSPropertyOp45
 70
     1
102
RTVSPropertyOp46
 70
     1
102
RTVSPropertyOp47
 70
     1
102
RTVSPropertyOp48
 70
     1
102
RTVSPropertyOp49
 70
     1
102
RTVSPropertyOp50
 70
     1
102
RTVSPropertyOp51
 70
     0
102
RTVSPropertyOp52
 70
     0
102
RTVSPropertyOp53
 70
     1
102
RTVSPropertyOp54
 70
     1
102
RTVSPropertyOp55
 70
     1
102
RTVSPropertyOp56
 70
     1
102
RTVSPropertyOp57
 70
     1
102
RTVSPropertyOp58
 70
     1
102
RTVSPropertyOp59
 70
     1
102
RTVSPropertyOp60
 70
     1
102
RTVSPropertyOp61
 70
     1
102
RTVSPropertyOp62
 70
     1
  0
XRECORD
  5
BE6
102
{ACAD_REACTORS
330
BE5
102
}
330
BE5
100
AcDbXrecord
280
     1
102
RTVSPost2010Prop28
280
     0
102
RTVSPost2010PropOp28
 70
     1
102
RTVSPost2010Prop29
280
     1
102
RTVSPost2010PropOp29
 70
     1
102
RTVSPost2010Prop30
280
     1
102
RTVSPost2010PropOp30
 70
     1
102
RTVSPost2010Prop31
280
     0
102
RTVSPost2010PropOp31
 70
     1
102
RTVSPost2010Prop32
280
     0
102
RTVSPost2010PropOp32
 70
     1
102
RTVSPost2010Prop33
280
     0
102
RTVSPost2010PropOp33
 70
     1
102
RTVSPost2010Prop34
280
     0
102
RTVSPost2010PropOp34
 70
     1
102
RTVSPost2010Prop35
280
     0
102
RTVSPost2010PropOp35
 70
     1
102
RTVSPost2010Prop36
280
     0
102
RTVSPost2010PropOp36
 70
     1
102
RTVSPost2010Prop37
 90
       50
102
RTVSPost2010PropOp37
 70
     1
102
RTVSPost2010Prop38
140
0.0
102
RTVSPost2010PropOp38
 70
     1
102
RTVSPost2010Prop39
140
1.0
102
RTVSPost2010PropOp39
 70
     1
102
RTVSPost2010Prop40
 90
        0
102
RTVSPost2010PropOp40
 70
     1
102
RTVSPost2010Prop41ColorIndex
 90
       18
102
RTVSPost2010Prop41ColorRGB
 90
        0
102
RTVSPost2010PropOp41
 70
     1
102
RTVSPost2010Prop42
 90
       50
102
RTVSPost2010PropOp42
 70
     1
102
RTVSPost2010Prop43
 90
        3
102
RTVSPost2010PropOp43
 70
     1
102
RTVSPost2010Prop44ColorIndex
 90
        5
102
RTVSPost2010Prop44ColorRGB
 90
      255
102
RTVSPost2010PropOp44
 70
     1
102
RTVSPost2010Prop45
280
     0
102
RTVSPost2010PropOp45
 70
     1
102
RTVSPost2010Prop46
 90
       50
102
RTVSPost2010PropOp46
 70
     1
102
RTVSPost2010Prop47
 90
       50
102
RTVSPost2010PropOp47
 70
     1
102
RTVSPost2010Prop48
 90
       50
102
RTVSPost2010PropOp48
 70
     1
102
RTVSPost2010Prop49
280
     0
102
RTVSPost2010PropOp49
 70
     1
102
RTVSPost2010Prop50
 90
       50
102
RTVSPost2010PropOp50
 70
     1
102
RTVSPost2010Prop51ColorIndex
 90
      256
102
RTVSPost2010Prop51ColorRGB
 90
-16777216
102
RTVSPost2010PropOp51
 70
     0
102
RTVSPost2010Prop52
140
1.0
102
RTVSPost2010PropOp52
 70
     0
102
RTVSPost2010Prop53
 90
        2
102
RTVSPost2010PropOp53
 70
     1
102
RTVSPost2010Prop54
  1
strokes_ogs.tif
102
RTVSPost2010PropOp54
 70
     1
102
RTVSPost2010Prop55
280
     0
102
RTVSPost2010PropOp55
 70
     1
102
RTVSPost2010Prop56
140
1.0
102
RTVSPost2010PropOp56
 70
     1
102
RTVSPost2010Prop57
140
1.0
102
RTVSPost2010PropOp57
 70
     1
102
RTVSPropertyOp0
 70
     1
102
RTVSPropertyOp1
 70
     1
102
RTVSPropertyOp2
 70
     1
102
RTVSPropertyOp3
 70
     1
102
RTVSPropertyOp4
 70
     1
102
RTVSPropertyOp5
 70
     1
102
RTVSPropertyOp6
 70
     1
102
RTVSPropertyOp7
 70
     1
102
RTVSPropertyOp8
 70
     1
102
RTVSPropertyOp9
 70
     1
102
RTVSPropertyOp10
 70
     1
102
RTVSPropertyOp11
 70
     1
102
RTVSPropertyOp12
 70
     1
102
RTVSPropertyOp13
 70
     1
102
RTVSPropertyOp14
 70
     1
102
RTVSPropertyOp15
 70
     1
102
RTVSPropertyOp16
 70
     1
102
RTVSPropertyOp17
 70
     1
102
RTVSPropertyOp18
 70
     1
102
RTVSPropertyOp19
 70
     1
102
RTVSPropertyOp20
 70
     1
102
RTVSPropertyOp21
 70
     1
102
RTVSPropertyOp22
 70
     1
102
RTVSPropertyOp23
 70
     1
102
RTVSPropertyOp24
 70
     1
102
RTVSPropertyOp25
 70
     1
102
RTVSPropertyOp26
 70
     1
102
RTVSPropertyOp27
 70
     1
102
RTVSPropertyOp28
 70
     1
102
RTVSPropertyOp29
 70
     1
102
RTVSPropertyOp30
 70
     1
102
RTVSPropertyOp31
 70
     1
102
RTVSPropertyOp32
 70
     1
102
RTVSPropertyOp33
 70
     1
102
RTVSPropertyOp34
 70
     1
102
RTVSPropertyOp35
 70
     1
102
RTVSPropertyOp36
 70
     1
102
RTVSPropertyOp37
 70
     1
102
RTVSPropertyOp38
 70
     1
102
RTVSPropertyOp39
 70
     1
102
RTVSPropertyOp40
 70
     1
102
RTVSPropertyOp41
 70
     1
102
RTVSPropertyOp42
 70
     1
102
RTVSPropertyOp43
 70
     1
102
RTVSPropertyOp44
 70
     1
102
RTVSPropertyOp45
 70
     1
102
RTVSPropertyOp46
 70
     1
102
RTVSPropertyOp47
 70
     1
102
RTVSPropertyOp48
 70
     1
102
RTVSPropertyOp49
 70
     1
102
RTVSPropertyOp50
 70
     1
102
RTVSPropertyOp51
 70
     0
102
RTVSPropertyOp52
 70
     0
102
RTVSPropertyOp53
 70
     1
102
RTVSPropertyOp54
 70
     1
102
RTVSPropertyOp55
 70
     1
102
RTVSPropertyOp56
 70
     1
102
RTVSPropertyOp57
 70
     1
102
RTVSPropertyOp58
 70
     1
102
RTVSPropertyOp59
 70
     1
102
RTVSPropertyOp60
 70
     1
102
RTVSPropertyOp61
 70
     1
102
RTVSPropertyOp62
 70
     1
  0
XRECORD
  5
BD8
102
{ACAD_REACTORS
330
BD7
102
}
330
BD7
100
AcDbXrecord
280
     1
102
RTVSPost2010Prop28
280
     0
102
RTVSPost2010PropOp28
 70
     1
102
RTVSPost2010Prop29
280
     1
102
RTVSPost2010PropOp29
 70
     1
102
RTVSPost2010Prop30
280
     1
102
RTVSPost2010PropOp30
 70
     1
102
RTVSPost2010Prop31
280
     0
102
RTVSPost2010PropOp31
 70
     1
102
RTVSPost2010Prop32
280
     0
102
RTVSPost2010PropOp32
 70
     1
102
RTVSPost2010Prop33
280
     0
102
RTVSPost2010PropOp33
 70
     1
102
RTVSPost2010Prop34
280
     0
102
RTVSPost2010PropOp34
 70
     1
102
RTVSPost2010Prop35
280
     0
102
RTVSPost2010PropOp35
 70
     1
102
RTVSPost2010Prop36
280
     0
102
RTVSPost2010PropOp36
 70
     1
102
RTVSPost2010Prop37
 90
       50
102
RTVSPost2010PropOp37
 70
     1
102
RTVSPost2010Prop38
140
0.0
102
RTVSPost2010PropOp38
 70
     1
102
RTVSPost2010Prop39
140
1.0
102
RTVSPost2010PropOp39
 70
     1
102
RTVSPost2010Prop40
 90
        0
102
RTVSPost2010PropOp40
 70
     1
102
RTVSPost2010Prop41ColorIndex
 90
       18
102
RTVSPost2010Prop41ColorRGB
 90
        0
102
RTVSPost2010PropOp41
 70
     1
102
RTVSPost2010Prop42
 90
       50
102
RTVSPost2010PropOp42
 70
     1
102
RTVSPost2010Prop43
 90
        3
102
RTVSPost2010PropOp43
 70
     1
102
RTVSPost2010Prop44ColorIndex
 90
        5
102
RTVSPost2010Prop44ColorRGB
 90
      255
102
RTVSPost2010PropOp44
 70
     1
102
RTVSPost2010Prop45
280
     0
102
RTVSPost2010PropOp45
 70
     1
102
RTVSPost2010Prop46
 90
       50
102
RTVSPost2010PropOp46
 70
     1
102
RTVSPost2010Prop47
 90
       50
102
RTVSPost2010PropOp47
 70
     1
102
RTVSPost2010Prop48
 90
       50
102
RTVSPost2010PropOp48
 70
     1
102
RTVSPost2010Prop49
280
     0
102
RTVSPost2010PropOp49
 70
     1
102
RTVSPost2010Prop50
 90
       50
102
RTVSPost2010PropOp50
 70
     1
102
RTVSPost2010Prop51ColorIndex
 90
      256
102
RTVSPost2010Prop51ColorRGB
 90
-16777216
102
RTVSPost2010PropOp51
 70
     0
102
RTVSPost2010Prop52
140
1.0
102
RTVSPost2010PropOp52
 70
     0
102
RTVSPost2010Prop53
 90
        2
102
RTVSPost2010PropOp53
 70
     1
102
RTVSPost2010Prop54
  1
strokes_ogs.tif
102
RTVSPost2010PropOp54
 70
     1
102
RTVSPost2010Prop55
280
     0
102
RTVSPost2010PropOp55
 70
     1
102
RTVSPost2010Prop56
140
1.0
102
RTVSPost2010PropOp56
 70
     1
102
RTVSPost2010Prop57
140
1.0
102
RTVSPost2010PropOp57
 70
     1
102
RTVSPropertyOp0
 70
     1
102
RTVSPropertyOp1
 70
     1
102
RTVSPropertyOp2
 70
     1
102
RTVSPropertyOp3
 70
     1
102
RTVSPropertyOp4
 70
     1
102
RTVSPropertyOp5
 70
     1
102
RTVSPropertyOp6
 70
     1
102
RTVSPropertyOp7
 70
     1
102
RTVSPropertyOp8
 70
     1
102
RTVSPropertyOp9
 70
     1
102
RTVSPropertyOp10
 70
     1
102
RTVSPropertyOp11
 70
     1
102
RTVSPropertyOp12
 70
     1
102
RTVSPropertyOp13
 70
     1
102
RTVSPropertyOp14
 70
     1
102
RTVSPropertyOp15
 70
     1
102
RTVSPropertyOp16
 70
     1
102
RTVSPropertyOp17
 70
     1
102
RTVSPropertyOp18
 70
     1
102
RTVSPropertyOp19
 70
     1
102
RTVSPropertyOp20
 70
     1
102
RTVSPropertyOp21
 70
     1
102
RTVSPropertyOp22
 70
     1
102
RTVSPropertyOp23
 70
     1
102
RTVSPropertyOp24
 70
     1
102
RTVSPropertyOp25
 70
     1
102
RTVSPropertyOp26
 70
     1
102
RTVSPropertyOp27
 70
     1
102
RTVSPropertyOp28
 70
     1
102
RTVSPropertyOp29
 70
     1
102
RTVSPropertyOp30
 70
     1
102
RTVSPropertyOp31
 70
     1
102
RTVSPropertyOp32
 70
     1
102
RTVSPropertyOp33
 70
     1
102
RTVSPropertyOp34
 70
     1
102
RTVSPropertyOp35
 70
     1
102
RTVSPropertyOp36
 70
     1
102
RTVSPropertyOp37
 70
     1
102
RTVSPropertyOp38
 70
     1
102
RTVSPropertyOp39
 70
     1
102
RTVSPropertyOp40
 70
     1
102
RTVSPropertyOp41
 70
     1
102
RTVSPropertyOp42
 70
     1
102
RTVSPropertyOp43
 70
     1
102
RTVSPropertyOp44
 70
     1
102
RTVSPropertyOp45
 70
     1
102
RTVSPropertyOp46
 70
     1
102
RTVSPropertyOp47
 70
     1
102
RTVSPropertyOp48
 70
     1
102
RTVSPropertyOp49
 70
     1
102
RTVSPropertyOp50
 70
     1
102
RTVSPropertyOp51
 70
     0
102
RTVSPropertyOp52
 70
     0
102
RTVSPropertyOp53
 70
     1
102
RTVSPropertyOp54
 70
     1
102
RTVSPropertyOp55
 70
     1
102
RTVSPropertyOp56
 70
     1
102
RTVSPropertyOp57
 70
     1
102
RTVSPropertyOp58
 70
     1
102
RTVSPropertyOp59
 70
     1
102
RTVSPropertyOp60
 70
     1
102
RTVSPropertyOp61
 70
     1
102
RTVSPropertyOp62
 70
     1
  0
XRECORD
  5
BDC
102
{ACAD_REACTORS
330
BDB
102
}
330
BDB
100
AcDbXrecord
280
     1
102
RTVSPost2010Prop28
280
     0
102
RTVSPost2010PropOp28
 70
     1
102
RTVSPost2010Prop29
280
     1
102
RTVSPost2010PropOp29
 70
     1
102
RTVSPost2010Prop30
280
     1
102
RTVSPost2010PropOp30
 70
     1
102
RTVSPost2010Prop31
280
     0
102
RTVSPost2010PropOp31
 70
     1
102
RTVSPost2010Prop32
280
     0
102
RTVSPost2010PropOp32
 70
     1
102
RTVSPost2010Prop33
280
     0
102
RTVSPost2010PropOp33
 70
     1
102
RTVSPost2010Prop34
280
     0
102
RTVSPost2010PropOp34
 70
     1
102
RTVSPost2010Prop35
280
     0
102
RTVSPost2010PropOp35
 70
     1
102
RTVSPost2010Prop36
280
     0
102
RTVSPost2010PropOp36
 70
     1
102
RTVSPost2010Prop37
 90
       50
102
RTVSPost2010PropOp37
 70
     1
102
RTVSPost2010Prop38
140
0.0
102
RTVSPost2010PropOp38
 70
     1
102
RTVSPost2010Prop39
140
1.0
102
RTVSPost2010PropOp39
 70
     1
102
RTVSPost2010Prop40
 90
        0
102
RTVSPost2010PropOp40
 70
     1
102
RTVSPost2010Prop41ColorIndex
 90
       18
102
RTVSPost2010Prop41ColorRGB
 90
        0
102
RTVSPost2010PropOp41
 70
     1
102
RTVSPost2010Prop42
 90
       50
102
RTVSPost2010PropOp42
 70
     1
102
RTVSPost2010Prop43
 90
        3
102
RTVSPost2010PropOp43
 70
     1
102
RTVSPost2010Prop44ColorIndex
 90
        5
102
RTVSPost2010Prop44ColorRGB
 90
      255
102
RTVSPost2010PropOp44
 70
     1
102
RTVSPost2010Prop45
280
     0
102
RTVSPost2010PropOp45
 70
     1
102
RTVSPost2010Prop46
 90
       50
102
RTVSPost2010PropOp46
 70
     1
102
RTVSPost2010Prop47
 90
       50
102
RTVSPost2010PropOp47
 70
     1
102
RTVSPost2010Prop48
 90
       50
102
RTVSPost2010PropOp48
 70
     1
102
RTVSPost2010Prop49
280
     0
102
RTVSPost2010PropOp49
 70
     1
102
RTVSPost2010Prop50
 90
       50
102
RTVSPost2010PropOp50
 70
     1
102
RTVSPost2010Prop51ColorIndex
 90
      256
102
RTVSPost2010Prop51ColorRGB
 90
-16777216
102
RTVSPost2010PropOp51
 70
     0
102
RTVSPost2010Prop52
140
1.0
102
RTVSPost2010PropOp52
 70
     0
102
RTVSPost2010Prop53
 90
        2
102
RTVSPost2010PropOp53
 70
     1
102
RTVSPost2010Prop54
  1
strokes_ogs.tif
102
RTVSPost2010PropOp54
 70
     1
102
RTVSPost2010Prop55
280
     0
102
RTVSPost2010PropOp55
 70
     1
102
RTVSPost2010Prop56
140
1.0
102
RTVSPost2010PropOp56
 70
     1
102
RTVSPost2010Prop57
140
1.0
102
RTVSPost2010PropOp57
 70
     1
102
RTVSPropertyOp0
 70
     1
102
RTVSPropertyOp1
 70
     1
102
RTVSPropertyOp2
 70
     1
102
RTVSPropertyOp3
 70
     1
102
RTVSPropertyOp4
 70
     1
102
RTVSPropertyOp5
 70
     1
102
RTVSPropertyOp6
 70
     1
102
RTVSPropertyOp7
 70
     1
102
RTVSPropertyOp8
 70
     1
102
RTVSPropertyOp9
 70
     1
102
RTVSPropertyOp10
 70
     1
102
RTVSPropertyOp11
 70
     1
102
RTVSPropertyOp12
 70
     1
102
RTVSPropertyOp13
 70
     1
102
RTVSPropertyOp14
 70
     1
102
RTVSPropertyOp15
 70
     1
102
RTVSPropertyOp16
 70
     1
102
RTVSPropertyOp17
 70
     1
102
RTVSPropertyOp18
 70
     1
102
RTVSPropertyOp19
 70
     1
102
RTVSPropertyOp20
 70
     1
102
RTVSPropertyOp21
 70
     1
102
RTVSPropertyOp22
 70
     1
102
RTVSPropertyOp23
 70
     1
102
RTVSPropertyOp24
 70
     1
102
RTVSPropertyOp25
 70
     1
102
RTVSPropertyOp26
 70
     1
102
RTVSPropertyOp27
 70
     1
102
RTVSPropertyOp28
 70
     1
102
RTVSPropertyOp29
 70
     1
102
RTVSPropertyOp30
 70
     1
102
RTVSPropertyOp31
 70
     1
102
RTVSPropertyOp32
 70
     1
102
RTVSPropertyOp33
 70
     1
102
RTVSPropertyOp34
 70
     1
102
RTVSPropertyOp35
 70
     1
102
RTVSPropertyOp36
 70
     1
102
RTVSPropertyOp37
 70
     1
102
RTVSPropertyOp38
 70
     1
102
RTVSPropertyOp39
 70
     1
102
RTVSPropertyOp40
 70
     1
102
RTVSPropertyOp41
 70
     1
102
RTVSPropertyOp42
 70
     1
102
RTVSPropertyOp43
 70
     1
102
RTVSPropertyOp44
 70
     1
102
RTVSPropertyOp45
 70
     1
102
RTVSPropertyOp46
 70
     1
102
RTVSPropertyOp47
 70
     1
102
RTVSPropertyOp48
 70
     1
102
RTVSPropertyOp49
 70
     1
102
RTVSPropertyOp50
 70
     1
102
RTVSPropertyOp51
 70
     0
102
RTVSPropertyOp52
 70
     0
102
RTVSPropertyOp53
 70
     1
102
RTVSPropertyOp54
 70
     1
102
RTVSPropertyOp55
 70
     1
102
RTVSPropertyOp56
 70
     1
102
RTVSPropertyOp57
 70
     1
102
RTVSPropertyOp58
 70
     1
102
RTVSPropertyOp59
 70
     1
102
RTVSPropertyOp60
 70
     1
102
RTVSPropertyOp61
 70
     1
102
RTVSPropertyOp62
 70
     1
  0
XRECORD
  5
BF6
102
{ACAD_REACTORS
330
BF5
102
}
330
BF5
100
AcDbXrecord
280
     1
102
RTVSPost2010Prop28
280
     0
102
RTVSPost2010PropOp28
 70
     1
102
RTVSPost2010Prop29
280
     1
102
RTVSPost2010PropOp29
 70
     1
102
RTVSPost2010Prop30
280
     1
102
RTVSPost2010PropOp30
 70
     1
102
RTVSPost2010Prop31
280
     0
102
RTVSPost2010PropOp31
 70
     1
102
RTVSPost2010Prop32
280
     0
102
RTVSPost2010PropOp32
 70
     1
102
RTVSPost2010Prop33
280
     0
102
RTVSPost2010PropOp33
 70
     1
102
RTVSPost2010Prop34
280
     0
102
RTVSPost2010PropOp34
 70
     1
102
RTVSPost2010Prop35
280
     0
102
RTVSPost2010PropOp35
 70
     1
102
RTVSPost2010Prop36
280
     0
102
RTVSPost2010PropOp36
 70
     1
102
RTVSPost2010Prop37
 90
       50
102
RTVSPost2010PropOp37
 70
     0
102
RTVSPost2010Prop38
140
0.0
102
RTVSPost2010PropOp38
 70
     0
102
RTVSPost2010Prop39
140
1.0
102
RTVSPost2010PropOp39
 70
     0
102
RTVSPost2010Prop40
 90
        0
102
RTVSPost2010PropOp40
 70
     0
102
RTVSPost2010Prop41ColorIndex
 90
       18
102
RTVSPost2010Prop41ColorRGB
 90
        0
102
RTVSPost2010PropOp41
 70
     0
102
RTVSPost2010Prop42
 90
       50
102
RTVSPost2010PropOp42
 70
     0
102
RTVSPost2010Prop43
 90
        3
102
RTVSPost2010PropOp43
 70
     0
102
RTVSPost2010Prop44ColorIndex
 90
        5
102
RTVSPost2010Prop44ColorRGB
 90
      255
102
RTVSPost2010PropOp44
 70
     0
102
RTVSPost2010Prop45
280
     0
102
RTVSPost2010PropOp45
 70
     1
102
RTVSPost2010Prop46
 90
       50
102
RTVSPost2010PropOp46
 70
     0
102
RTVSPost2010Prop47
 90
       50
102
RTVSPost2010PropOp47
 70
     0
102
RTVSPost2010Prop48
 90
       50
102
RTVSPost2010PropOp48
 70
     0
102
RTVSPost2010Prop49
280
     0
102
RTVSPost2010PropOp49
 70
     1
102
RTVSPost2010Prop50
 90
       50
102
RTVSPost2010PropOp50
 70
     0
102
RTVSPost2010Prop51ColorIndex
 90
      256
102
RTVSPost2010Prop51ColorRGB
 90
-16777216
102
RTVSPost2010PropOp51
 70
     0
102
RTVSPost2010Prop52
140
1.0
102
RTVSPost2010PropOp52
 70
     0
102
RTVSPost2010Prop53
 90
        2
102
RTVSPost2010PropOp53
 70
     0
102
RTVSPost2010Prop54
  1
strokes_ogs.tif
102
RTVSPost2010PropOp54
 70
     0
102
RTVSPost2010Prop55
280
     0
102
RTVSPost2010PropOp55
 70
     1
102
RTVSPost2010Prop56
140
1.0
102
RTVSPost2010PropOp56
 70
     0
102
RTVSPost2010Prop57
140
1.0
102
RTVSPost2010PropOp57
 70
     0
102
RTVSPropertyOp0
 70
     0
102
RTVSPropertyOp1
 70
     0
102
RTVSPropertyOp2
 70
     0
102
RTVSPropertyOp3
 70
     0
102
RTVSPropertyOp4
 70
     0
102
RTVSPropertyOp5
 70
     0
102
RTVSPropertyOp6
 70
     0
102
RTVSPropertyOp7
 70
     0
102
RTVSPropertyOp8
 70
     0
102
RTVSPropertyOp9
 70
     0
102
RTVSPropertyOp10
 70
     0
102
RTVSPropertyOp11
 70
     0
102
RTVSPropertyOp12
 70
     0
102
RTVSPropertyOp13
 70
     0
102
RTVSPropertyOp14
 70
     2
102
RTVSPropertyOp15
 70
     0
102
RTVSPropertyOp16
 70
     0
102
RTVSPropertyOp17
 70
     0
102
RTVSPropertyOp18
 70
     0
102
RTVSPropertyOp19
 70
     0
102
RTVSPropertyOp20
 70
     0
102
RTVSPropertyOp21
 70
     0
102
RTVSPropertyOp22
 70
     0
102
RTVSPropertyOp23
 70
     0
102
RTVSPropertyOp24
 70
     0
102
RTVSPropertyOp25
 70
     0
102
RTVSPropertyOp26
 70
     0
102
RTVSPropertyOp27
 70
     0
102
RTVSPropertyOp28
 70
     1
102
RTVSPropertyOp29
 70
     1
102
RTVSPropertyOp30
 70
     1
102
RTVSPropertyOp31
 70
     1
102
RTVSPropertyOp32
 70
     1
102
RTVSPropertyOp33
 70
     1
102
RTVSPropertyOp34
 70
     1
102
RTVSPropertyOp35
 70
     1
102
RTVSPropertyOp36
 70
     1
102
RTVSPropertyOp37
 70
     0
102
RTVSPropertyOp38
 70
     0
102
RTVSPropertyOp39
 70
     0
102
RTVSPropertyOp40
 70
     0
102
RTVSPropertyOp41
 70
     0
102
RTVSPropertyOp42
 70
     0
102
RTVSPropertyOp43
 70
     0
102
RTVSPropertyOp44
 70
     0
102
RTVSPropertyOp45
 70
     1
102
RTVSPropertyOp46
 70
     0
102
RTVSPropertyOp47
 70
     0
102
RTVSPropertyOp48
 70
     0
102
RTVSPropertyOp49
 70
     1
102
RTVSPropertyOp50
 70
     0
102
RTVSPropertyOp51
 70
     0
102
RTVSPropertyOp52
 70
     0
102
RTVSPropertyOp53
 70
     0
102
RTVSPropertyOp54
 70
     0
102
RTVSPropertyOp55
 70
     1
102
RTVSPropertyOp56
 70
     0
102
RTVSPropertyOp57
 70
     0
102
RTVSPropertyOp58
 70
     0
102
RTVSPropertyOp59
 70
     0
102
RTVSPropertyOp60
 70
     0
102
RTVSPropertyOp61
 70
     0
102
RTVSPropertyOp62
 70
     0
  0
XRECORD
  5
BE4
102
{ACAD_REACTORS
330
BE3
102
}
330
BE3
100
AcDbXrecord
280
     1
102
RTVSPost2010Prop28
280
     0
102
RTVSPost2010PropOp28
 70
     1
102
RTVSPost2010Prop29
280
     1
102
RTVSPost2010PropOp29
 70
     1
102
RTVSPost2010Prop30
280
     1
102
RTVSPost2010PropOp30
 70
     1
102
RTVSPost2010Prop31
280
     0
102
RTVSPost2010PropOp31
 70
     1
102
RTVSPost2010Prop32
280
     0
102
RTVSPost2010PropOp32
 70
     1
102
RTVSPost2010Prop33
280
     0
102
RTVSPost2010PropOp33
 70
     1
102
RTVSPost2010Prop34
280
     0
102
RTVSPost2010PropOp34
 70
     1
102
RTVSPost2010Prop35
280
     0
102
RTVSPost2010PropOp35
 70
     1
102
RTVSPost2010Prop36
280
     0
102
RTVSPost2010PropOp36
 70
     1
102
RTVSPost2010Prop37
 90
       50
102
RTVSPost2010PropOp37
 70
     1
102
RTVSPost2010Prop38
140
0.0
102
RTVSPost2010PropOp38
 70
     1
102
RTVSPost2010Prop39
140
1.0
102
RTVSPost2010PropOp39
 70
     1
102
RTVSPost2010Prop40
 90
        0
102
RTVSPost2010PropOp40
 70
     1
102
RTVSPost2010Prop41ColorIndex
 90
       18
102
RTVSPost2010Prop41ColorRGB
 90
        0
102
RTVSPost2010PropOp41
 70
     1
102
RTVSPost2010Prop42
 90
       50
102
RTVSPost2010PropOp42
 70
     1
102
RTVSPost2010Prop43
 90
        3
102
RTVSPost2010PropOp43
 70
     1
102
RTVSPost2010Prop44ColorIndex
 90
        5
102
RTVSPost2010Prop44ColorRGB
 90
      255
102
RTVSPost2010PropOp44
 70
     1
102
RTVSPost2010Prop45
280
     0
102
RTVSPost2010PropOp45
 70
     1
102
RTVSPost2010Prop46
 90
       50
102
RTVSPost2010PropOp46
 70
     1
102
RTVSPost2010Prop47
 90
       50
102
RTVSPost2010PropOp47
 70
     1
102
RTVSPost2010Prop48
 90
       50
102
RTVSPost2010PropOp48
 70
     1
102
RTVSPost2010Prop49
280
     0
102
RTVSPost2010PropOp49
 70
     1
102
RTVSPost2010Prop50
 90
       50
102
RTVSPost2010PropOp50
 70
     1
102
RTVSPost2010Prop51ColorIndex
 90
      256
102
RTVSPost2010Prop51ColorRGB
 90
-16777216
102
RTVSPost2010PropOp51
 70
     0
102
RTVSPost2010Prop52
140
1.0
102
RTVSPost2010PropOp52
 70
     0
102
RTVSPost2010Prop53
 90
        2
102
RTVSPost2010PropOp53
 70
     1
102
RTVSPost2010Prop54
  1
strokes_ogs.tif
102
RTVSPost2010PropOp54
 70
     1
102
RTVSPost2010Prop55
280
     0
102
RTVSPost2010PropOp55
 70
     1
102
RTVSPost2010Prop56
140
1.0
102
RTVSPost2010PropOp56
 70
     1
102
RTVSPost2010Prop57
140
1.0
102
RTVSPost2010PropOp57
 70
     1
102
RTVSPropertyOp0
 70
     1
102
RTVSPropertyOp1
 70
     1
102
RTVSPropertyOp2
 70
     1
102
RTVSPropertyOp3
 70
     1
102
RTVSPropertyOp4
 70
     1
102
RTVSPropertyOp5
 70
     1
102
RTVSPropertyOp6
 70
     1
102
RTVSPropertyOp7
 70
     1
102
RTVSPropertyOp8
 70
     1
102
RTVSPropertyOp9
 70
     1
102
RTVSPropertyOp10
 70
     1
102
RTVSPropertyOp11
 70
     1
102
RTVSPropertyOp12
 70
     1
102
RTVSPropertyOp13
 70
     1
102
RTVSPropertyOp14
 70
     1
102
RTVSPropertyOp15
 70
     1
102
RTVSPropertyOp16
 70
     1
102
RTVSPropertyOp17
 70
     1
102
RTVSPropertyOp18
 70
     1
102
RTVSPropertyOp19
 70
     1
102
RTVSPropertyOp20
 70
     1
102
RTVSPropertyOp21
 70
     1
102
RTVSPropertyOp22
 70
     1
102
RTVSPropertyOp23
 70
     1
102
RTVSPropertyOp24
 70
     1
102
RTVSPropertyOp25
 70
     1
102
RTVSPropertyOp26
 70
     1
102
RTVSPropertyOp27
 70
     1
102
RTVSPropertyOp28
 70
     1
102
RTVSPropertyOp29
 70
     1
102
RTVSPropertyOp30
 70
     1
102
RTVSPropertyOp31
 70
     1
102
RTVSPropertyOp32
 70
     1
102
RTVSPropertyOp33
 70
     1
102
RTVSPropertyOp34
 70
     1
102
RTVSPropertyOp35
 70
     1
102
RTVSPropertyOp36
 70
     1
102
RTVSPropertyOp37
 70
     1
102
RTVSPropertyOp38
 70
     1
102
RTVSPropertyOp39
 70
     1
102
RTVSPropertyOp40
 70
     1
102
RTVSPropertyOp41
 70
     1
102
RTVSPropertyOp42
 70
     1
102
RTVSPropertyOp43
 70
     1
102
RTVSPropertyOp44
 70
     1
102
RTVSPropertyOp45
 70
     1
102
RTVSPropertyOp46
 70
     1
102
RTVSPropertyOp47
 70
     1
102
RTVSPropertyOp48
 70
     1
102
RTVSPropertyOp49
 70
     1
102
RTVSPropertyOp50
 70
     1
102
RTVSPropertyOp51
 70
     0
102
RTVSPropertyOp52
 70
     0
102
RTVSPropertyOp53
 70
     1
102
RTVSPropertyOp54
 70
     1
102
RTVSPropertyOp55
 70
     1
102
RTVSPropertyOp56
 70
     1
102
RTVSPropertyOp57
 70
     1
102
RTVSPropertyOp58
 70
     1
102
RTVSPropertyOp59
 70
     1
102
RTVSPropertyOp60
 70
     1
102
RTVSPropertyOp61
 70
     1
102
RTVSPropertyOp62
 70
     1
  0
XRECORD
  5
BC8
102
{ACAD_REACTORS
330
BC7
102
}
330
BC7
100
AcDbXrecord
280
     1
102
RTVSPost2010Prop28
280
     0
102
RTVSPost2010PropOp28
 70
     1
102
RTVSPost2010Prop29
280
     1
102
RTVSPost2010PropOp29
 70
     1
102
RTVSPost2010Prop30
280
     1
102
RTVSPost2010PropOp30
 70
     1
102
RTVSPost2010Prop31
280
     0
102
RTVSPost2010PropOp31
 70
     1
102
RTVSPost2010Prop32
280
     0
102
RTVSPost2010PropOp32
 70
     1
102
RTVSPost2010Prop33
280
     0
102
RTVSPost2010PropOp33
 70
     1
102
RTVSPost2010Prop34
280
     0
102
RTVSPost2010PropOp34
 70
     1
102
RTVSPost2010Prop35
280
     0
102
RTVSPost2010PropOp35
 70
     1
102
RTVSPost2010Prop36
280
     0
102
RTVSPost2010PropOp36
 70
     1
102
RTVSPost2010Prop37
 90
       50
102
RTVSPost2010PropOp37
 70
     1
102
RTVSPost2010Prop38
140
0.0
102
RTVSPost2010PropOp38
 70
     1
102
RTVSPost2010Prop39
140
1.0
102
RTVSPost2010PropOp39
 70
     1
102
RTVSPost2010Prop40
 90
        0
102
RTVSPost2010PropOp40
 70
     1
102
RTVSPost2010Prop41ColorIndex
 90
       18
102
RTVSPost2010Prop41ColorRGB
 90
        0
102
RTVSPost2010PropOp41
 70
     1
102
RTVSPost2010Prop42
 90
       50
102
RTVSPost2010PropOp42
 70
     1
102
RTVSPost2010Prop43
 90
        3
102
RTVSPost2010PropOp43
 70
     1
102
RTVSPost2010Prop44ColorIndex
 90
        5
102
RTVSPost2010Prop44ColorRGB
 90
      255
102
RTVSPost2010PropOp44
 70
     1
102
RTVSPost2010Prop45
280
     0
102
RTVSPost2010PropOp45
 70
     1
102
RTVSPost2010Prop46
 90
       50
102
RTVSPost2010PropOp46
 70
     1
102
RTVSPost2010Prop47
 90
       50
102
RTVSPost2010PropOp47
 70
     1
102
RTVSPost2010Prop48
 90
       50
102
RTVSPost2010PropOp48
 70
     1
102
RTVSPost2010Prop49
280
     0
102
RTVSPost2010PropOp49
 70
     1
102
RTVSPost2010Prop50
 90
       50
102
RTVSPost2010PropOp50
 70
     1
102
RTVSPost2010Prop51ColorIndex
 90
      256
102
RTVSPost2010Prop51ColorRGB
 90
-16777216
102
RTVSPost2010PropOp51
 70
     0
102
RTVSPost2010Prop52
140
1.0
102
RTVSPost2010PropOp52
 70
     0
102
RTVSPost2010Prop53
 90
        2
102
RTVSPost2010PropOp53
 70
     1
102
RTVSPost2010Prop54
  1
strokes_ogs.tif
102
RTVSPost2010PropOp54
 70
     1
102
RTVSPost2010Prop55
280
     0
102
RTVSPost2010PropOp55
 70
     1
102
RTVSPost2010Prop56
140
1.0
102
RTVSPost2010PropOp56
 70
     1
102
RTVSPost2010Prop57
140
1.0
102
RTVSPost2010PropOp57
 70
     1
102
RTVSPropertyOp0
 70
     1
102
RTVSPropertyOp1
 70
     1
102
RTVSPropertyOp2
 70
     1
102
RTVSPropertyOp3
 70
     1
102
RTVSPropertyOp4
 70
     1
102
RTVSPropertyOp5
 70
     1
102
RTVSPropertyOp6
 70
     1
102
RTVSPropertyOp7
 70
     1
102
RTVSPropertyOp8
 70
     1
102
RTVSPropertyOp9
 70
     1
102
RTVSPropertyOp10
 70
     1
102
RTVSPropertyOp11
 70
     1
102
RTVSPropertyOp12
 70
     1
102
RTVSPropertyOp13
 70
     1
102
RTVSPropertyOp14
 70
     1
102
RTVSPropertyOp15
 70
     1
102
RTVSPropertyOp16
 70
     1
102
RTVSPropertyOp17
 70
     1
102
RTVSPropertyOp18
 70
     1
102
RTVSPropertyOp19
 70
     1
102
RTVSPropertyOp20
 70
     1
102
RTVSPropertyOp21
 70
     1
102
RTVSPropertyOp22
 70
     1
102
RTVSPropertyOp23
 70
     1
102
RTVSPropertyOp24
 70
     1
102
RTVSPropertyOp25
 70
     1
102
RTVSPropertyOp26
 70
     1
102
RTVSPropertyOp27
 70
     1
102
RTVSPropertyOp28
 70
     1
102
RTVSPropertyOp29
 70
     1
102
RTVSPropertyOp30
 70
     1
102
RTVSPropertyOp31
 70
     1
102
RTVSPropertyOp32
 70
     1
102
RTVSPropertyOp33
 70
     1
102
RTVSPropertyOp34
 70
     1
102
RTVSPropertyOp35
 70
     1
102
RTVSPropertyOp36
 70
     1
102
RTVSPropertyOp37
 70
     1
102
RTVSPropertyOp38
 70
     1
102
RTVSPropertyOp39
 70
     1
102
RTVSPropertyOp40
 70
     1
102
RTVSPropertyOp41
 70
     1
102
RTVSPropertyOp42
 70
     1
102
RTVSPropertyOp43
 70
     1
102
RTVSPropertyOp44
 70
     1
102
RTVSPropertyOp45
 70
     1
102
RTVSPropertyOp46
 70
     1
102
RTVSPropertyOp47
 70
     1
102
RTVSPropertyOp48
 70
     1
102
RTVSPropertyOp49
 70
     1
102
RTVSPropertyOp50
 70
     1
102
RTVSPropertyOp51
 70
     0
102
RTVSPropertyOp52
 70
     0
102
RTVSPropertyOp53
 70
     1
102
RTVSPropertyOp54
 70
     1
102
RTVSPropertyOp55
 70
     1
102
RTVSPropertyOp56
 70
     1
102
RTVSPropertyOp57
 70
     1
102
RTVSPropertyOp58
 70
     1
102
RTVSPropertyOp59
 70
     1
102
RTVSPropertyOp60
 70
     1
102
RTVSPropertyOp61
 70
     1
102
RTVSPropertyOp62
 70
     1
  0
XRECORD
  5
BCA
102
{ACAD_REACTORS
330
BC9
102
}
330
BC9
100
AcDbXrecord
280
     1
102
RTVSPost2010Prop28
280
     0
102
RTVSPost2010PropOp28
 70
     1
102
RTVSPost2010Prop29
280
     1
102
RTVSPost2010PropOp29
 70
     1
102
RTVSPost2010Prop30
280
     1
102
RTVSPost2010PropOp30
 70
     1
102
RTVSPost2010Prop31
280
     0
102
RTVSPost2010PropOp31
 70
     1
102
RTVSPost2010Prop32
280
     0
102
RTVSPost2010PropOp32
 70
     1
102
RTVSPost2010Prop33
280
     0
102
RTVSPost2010PropOp33
 70
     1
102
RTVSPost2010Prop34
280
     0
102
RTVSPost2010PropOp34
 70
     1
102
RTVSPost2010Prop35
280
     0
102
RTVSPost2010PropOp35
 70
     1
102
RTVSPost2010Prop36
280
     0
102
RTVSPost2010PropOp36
 70
     1
102
RTVSPost2010Prop37
 90
       50
102
RTVSPost2010PropOp37
 70
     1
102
RTVSPost2010Prop38
140
0.0
102
RTVSPost2010PropOp38
 70
     1
102
RTVSPost2010Prop39
140
1.0
102
RTVSPost2010PropOp39
 70
     1
102
RTVSPost2010Prop40
 90
        0
102
RTVSPost2010PropOp40
 70
     1
102
RTVSPost2010Prop41ColorIndex
 90
       18
102
RTVSPost2010Prop41ColorRGB
 90
        0
102
RTVSPost2010PropOp41
 70
     1
102
RTVSPost2010Prop42
 90
       50
102
RTVSPost2010PropOp42
 70
     1
102
RTVSPost2010Prop43
 90
        3
102
RTVSPost2010PropOp43
 70
     1
102
RTVSPost2010Prop44ColorIndex
 90
        5
102
RTVSPost2010Prop44ColorRGB
 90
      255
102
RTVSPost2010PropOp44
 70
     1
102
RTVSPost2010Prop45
280
     0
102
RTVSPost2010PropOp45
 70
     1
102
RTVSPost2010Prop46
 90
       50
102
RTVSPost2010PropOp46
 70
     1
102
RTVSPost2010Prop47
 90
       50
102
RTVSPost2010PropOp47
 70
     1
102
RTVSPost2010Prop48
 90
       50
102
RTVSPost2010PropOp48
 70
     1
102
RTVSPost2010Prop49
280
     0
102
RTVSPost2010PropOp49
 70
     1
102
RTVSPost2010Prop50
 90
       50
102
RTVSPost2010PropOp50
 70
     1
102
RTVSPost2010Prop51ColorIndex
 90
      256
102
RTVSPost2010Prop51ColorRGB
 90
-16777216
102
RTVSPost2010PropOp51
 70
     0
102
RTVSPost2010Prop52
140
1.0
102
RTVSPost2010PropOp52
 70
     0
102
RTVSPost2010Prop53
 90
        2
102
RTVSPost2010PropOp53
 70
     1
102
RTVSPost2010Prop54
  1
strokes_ogs.tif
102
RTVSPost2010PropOp54
 70
     1
102
RTVSPost2010Prop55
280
     0
102
RTVSPost2010PropOp55
 70
     1
102
RTVSPost2010Prop56
140
1.0
102
RTVSPost2010PropOp56
 70
     1
102
RTVSPost2010Prop57
140
1.0
102
RTVSPost2010PropOp57
 70
     1
102
RTVSPropertyOp0
 70
     1
102
RTVSPropertyOp1
 70
     1
102
RTVSPropertyOp2
 70
     1
102
RTVSPropertyOp3
 70
     1
102
RTVSPropertyOp4
 70
     1
102
RTVSPropertyOp5
 70
     1
102
RTVSPropertyOp6
 70
     1
102
RTVSPropertyOp7
 70
     1
102
RTVSPropertyOp8
 70
     1
102
RTVSPropertyOp9
 70
     1
102
RTVSPropertyOp10
 70
     1
102
RTVSPropertyOp11
 70
     1
102
RTVSPropertyOp12
 70
     1
102
RTVSPropertyOp13
 70
     1
102
RTVSPropertyOp14
 70
     1
102
RTVSPropertyOp15
 70
     1
102
RTVSPropertyOp16
 70
     1
102
RTVSPropertyOp17
 70
     1
102
RTVSPropertyOp18
 70
     1
102
RTVSPropertyOp19
 70
     1
102
RTVSPropertyOp20
 70
     1
102
RTVSPropertyOp21
 70
     1
102
RTVSPropertyOp22
 70
     1
102
RTVSPropertyOp23
 70
     1
102
RTVSPropertyOp24
 70
     1
102
RTVSPropertyOp25
 70
     1
102
RTVSPropertyOp26
 70
     1
102
RTVSPropertyOp27
 70
     1
102
RTVSPropertyOp28
 70
     1
102
RTVSPropertyOp29
 70
     1
102
RTVSPropertyOp30
 70
     1
102
RTVSPropertyOp31
 70
     1
102
RTVSPropertyOp32
 70
     1
102
RTVSPropertyOp33
 70
     1
102
RTVSPropertyOp34
 70
     1
102
RTVSPropertyOp35
 70
     1
102
RTVSPropertyOp36
 70
     1
102
RTVSPropertyOp37
 70
     1
102
RTVSPropertyOp38
 70
     1
102
RTVSPropertyOp39
 70
     1
102
RTVSPropertyOp40
 70
     1
102
RTVSPropertyOp41
 70
     1
102
RTVSPropertyOp42
 70
     1
102
RTVSPropertyOp43
 70
     1
102
RTVSPropertyOp44
 70
     1
102
RTVSPropertyOp45
 70
     1
102
RTVSPropertyOp46
 70
     1
102
RTVSPropertyOp47
 70
     1
102
RTVSPropertyOp48
 70
     1
102
RTVSPropertyOp49
 70
     1
102
RTVSPropertyOp50
 70
     1
102
RTVSPropertyOp51
 70
     0
102
RTVSPropertyOp52
 70
     0
102
RTVSPropertyOp53
 70
     1
102
RTVSPropertyOp54
 70
     1
102
RTVSPropertyOp55
 70
     1
102
RTVSPropertyOp56
 70
     1
102
RTVSPropertyOp57
 70
     1
102
RTVSPropertyOp58
 70
     1
102
RTVSPropertyOp59
 70
     1
102
RTVSPropertyOp60
 70
     1
102
RTVSPropertyOp61
 70
     1
102
RTVSPropertyOp62
 70
     1
  0
XRECORD
  5
BCC
102
{ACAD_REACTORS
330
BCB
102
}
330
BCB
100
AcDbXrecord
280
     1
102
RTVSPost2010Prop28
280
     0
102
RTVSPost2010PropOp28
 70
     1
102
RTVSPost2010Prop29
280
     1
102
RTVSPost2010PropOp29
 70
     1
102
RTVSPost2010Prop30
280
     1
102
RTVSPost2010PropOp30
 70
     1
102
RTVSPost2010Prop31
280
     0
102
RTVSPost2010PropOp31
 70
     1
102
RTVSPost2010Prop32
280
     0
102
RTVSPost2010PropOp32
 70
     1
102
RTVSPost2010Prop33
280
     0
102
RTVSPost2010PropOp33
 70
     1
102
RTVSPost2010Prop34
280
     0
102
RTVSPost2010PropOp34
 70
     1
102
RTVSPost2010Prop35
280
     0
102
RTVSPost2010PropOp35
 70
     1
102
RTVSPost2010Prop36
280
     0
102
RTVSPost2010PropOp36
 70
     1
102
RTVSPost2010Prop37
 90
       50
102
RTVSPost2010PropOp37
 70
     1
102
RTVSPost2010Prop38
140
0.0
102
RTVSPost2010PropOp38
 70
     1
102
RTVSPost2010Prop39
140
1.0
102
RTVSPost2010PropOp39
 70
     1
102
RTVSPost2010Prop40
 90
        0
102
RTVSPost2010PropOp40
 70
     1
102
RTVSPost2010Prop41ColorIndex
 90
       18
102
RTVSPost2010Prop41ColorRGB
 90
        0
102
RTVSPost2010PropOp41
 70
     1
102
RTVSPost2010Prop42
 90
       50
102
RTVSPost2010PropOp42
 70
     1
102
RTVSPost2010Prop43
 90
        3
102
RTVSPost2010PropOp43
 70
     1
102
RTVSPost2010Prop44ColorIndex
 90
        5
102
RTVSPost2010Prop44ColorRGB
 90
      255
102
RTVSPost2010PropOp44
 70
     1
102
RTVSPost2010Prop45
280
     0
102
RTVSPost2010PropOp45
 70
     1
102
RTVSPost2010Prop46
 90
       50
102
RTVSPost2010PropOp46
 70
     1
102
RTVSPost2010Prop47
 90
       50
102
RTVSPost2010PropOp47
 70
     1
102
RTVSPost2010Prop48
 90
       50
102
RTVSPost2010PropOp48
 70
     1
102
RTVSPost2010Prop49
280
     0
102
RTVSPost2010PropOp49
 70
     1
102
RTVSPost2010Prop50
 90
       50
102
RTVSPost2010PropOp50
 70
     1
102
RTVSPost2010Prop51ColorIndex
 90
      256
102
RTVSPost2010Prop51ColorRGB
 90
-16777216
102
RTVSPost2010PropOp51
 70
     0
102
RTVSPost2010Prop52
140
1.0
102
RTVSPost2010PropOp52
 70
     0
102
RTVSPost2010Prop53
 90
        2
102
RTVSPost2010PropOp53
 70
     1
102
RTVSPost2010Prop54
  1
strokes_ogs.tif
102
RTVSPost2010PropOp54
 70
     1
102
RTVSPost2010Prop55
280
     0
102
RTVSPost2010PropOp55
 70
     1
102
RTVSPost2010Prop56
140
1.0
102
RTVSPost2010PropOp56
 70
     1
102
RTVSPost2010Prop57
140
1.0
102
RTVSPost2010PropOp57
 70
     1
102
RTVSPropertyOp0
 70
     1
102
RTVSPropertyOp1
 70
     1
102
RTVSPropertyOp2
 70
     1
102
RTVSPropertyOp3
 70
     1
102
RTVSPropertyOp4
 70
     1
102
RTVSPropertyOp5
 70
     1
102
RTVSPropertyOp6
 70
     1
102
RTVSPropertyOp7
 70
     1
102
RTVSPropertyOp8
 70
     1
102
RTVSPropertyOp9
 70
     1
102
RTVSPropertyOp10
 70
     1
102
RTVSPropertyOp11
 70
     1
102
RTVSPropertyOp12
 70
     1
102
RTVSPropertyOp13
 70
     1
102
RTVSPropertyOp14
 70
     1
102
RTVSPropertyOp15
 70
     1
102
RTVSPropertyOp16
 70
     1
102
RTVSPropertyOp17
 70
     1
102
RTVSPropertyOp18
 70
     1
102
RTVSPropertyOp19
 70
     1
102
RTVSPropertyOp20
 70
     1
102
RTVSPropertyOp21
 70
     1
102
RTVSPropertyOp22
 70
     1
102
RTVSPropertyOp23
 70
     1
102
RTVSPropertyOp24
 70
     1
102
RTVSPropertyOp25
 70
     1
102
RTVSPropertyOp26
 70
     1
102
RTVSPropertyOp27
 70
     1
102
RTVSPropertyOp28
 70
     1
102
RTVSPropertyOp29
 70
     1
102
RTVSPropertyOp30
 70
     1
102
RTVSPropertyOp31
 70
     1
102
RTVSPropertyOp32
 70
     1
102
RTVSPropertyOp33
 70
     1
102
RTVSPropertyOp34
 70
     1
102
RTVSPropertyOp35
 70
     1
102
RTVSPropertyOp36
 70
     1
102
RTVSPropertyOp37
 70
     1
102
RTVSPropertyOp38
 70
     1
102
RTVSPropertyOp39
 70
     1
102
RTVSPropertyOp40
 70
     1
102
RTVSPropertyOp41
 70
     1
102
RTVSPropertyOp42
 70
     1
102
RTVSPropertyOp43
 70
     1
102
RTVSPropertyOp44
 70
     1
102
RTVSPropertyOp45
 70
     1
102
RTVSPropertyOp46
 70
     1
102
RTVSPropertyOp47
 70
     1
102
RTVSPropertyOp48
 70
     1
102
RTVSPropertyOp49
 70
     1
102
RTVSPropertyOp50
 70
     1
102
RTVSPropertyOp51
 70
     0
102
RTVSPropertyOp52
 70
     0
102
RTVSPropertyOp53
 70
     1
102
RTVSPropertyOp54
 70
     1
102
RTVSPropertyOp55
 70
     1
102
RTVSPropertyOp56
 70
     1
102
RTVSPropertyOp57
 70
     1
102
RTVSPropertyOp58
 70
     1
102
RTVSPropertyOp59
 70
     1
102
RTVSPropertyOp60
 70
     1
102
RTVSPropertyOp61
 70
     1
102
RTVSPropertyOp62
 70
     1
  0
XRECORD
  5
BCE
102
{ACAD_REACTORS
330
BCD
102
}
330
BCD
100
AcDbXrecord
280
     1
102
RTVSPost2010Prop28
280
     0
102
RTVSPost2010PropOp28
 70
     1
102
RTVSPost2010Prop29
280
     1
102
RTVSPost2010PropOp29
 70
     1
102
RTVSPost2010Prop30
280
     1
102
RTVSPost2010PropOp30
 70
     1
102
RTVSPost2010Prop31
280
     0
102
RTVSPost2010PropOp31
 70
     1
102
RTVSPost2010Prop32
280
     0
102
RTVSPost2010PropOp32
 70
     1
102
RTVSPost2010Prop33
280
     0
102
RTVSPost2010PropOp33
 70
     1
102
RTVSPost2010Prop34
280
     0
102
RTVSPost2010PropOp34
 70
     1
102
RTVSPost2010Prop35
280
     0
102
RTVSPost2010PropOp35
 70
     1
102
RTVSPost2010Prop36
280
     0
102
RTVSPost2010PropOp36
 70
     1
102
RTVSPost2010Prop37
 90
       50
102
RTVSPost2010PropOp37
 70
     1
102
RTVSPost2010Prop38
140
0.0
102
RTVSPost2010PropOp38
 70
     1
102
RTVSPost2010Prop39
140
1.0
102
RTVSPost2010PropOp39
 70
     1
102
RTVSPost2010Prop40
 90
        0
102
RTVSPost2010PropOp40
 70
     1
102
RTVSPost2010Prop41ColorIndex
 90
       18
102
RTVSPost2010Prop41ColorRGB
 90
        0
102
RTVSPost2010PropOp41
 70
     1
102
RTVSPost2010Prop42
 90
       50
102
RTVSPost2010PropOp42
 70
     1
102
RTVSPost2010Prop43
 90
        3
102
RTVSPost2010PropOp43
 70
     1
102
RTVSPost2010Prop44ColorIndex
 90
        5
102
RTVSPost2010Prop44ColorRGB
 90
      255
102
RTVSPost2010PropOp44
 70
     1
102
RTVSPost2010Prop45
280
     0
102
RTVSPost2010PropOp45
 70
     1
102
RTVSPost2010Prop46
 90
       50
102
RTVSPost2010PropOp46
 70
     1
102
RTVSPost2010Prop47
 90
       50
102
RTVSPost2010PropOp47
 70
     1
102
RTVSPost2010Prop48
 90
       50
102
RTVSPost2010PropOp48
 70
     1
102
RTVSPost2010Prop49
280
     0
102
RTVSPost2010PropOp49
 70
     1
102
RTVSPost2010Prop50
 90
       50
102
RTVSPost2010PropOp50
 70
     1
102
RTVSPost2010Prop51ColorIndex
 90
      256
102
RTVSPost2010Prop51ColorRGB
 90
-16777216
102
RTVSPost2010PropOp51
 70
     0
102
RTVSPost2010Prop52
140
1.0
102
RTVSPost2010PropOp52
 70
     0
102
RTVSPost2010Prop53
 90
        2
102
RTVSPost2010PropOp53
 70
     1
102
RTVSPost2010Prop54
  1
strokes_ogs.tif
102
RTVSPost2010PropOp54
 70
     1
102
RTVSPost2010Prop55
280
     0
102
RTVSPost2010PropOp55
 70
     1
102
RTVSPost2010Prop56
140
1.0
102
RTVSPost2010PropOp56
 70
     1
102
RTVSPost2010Prop57
140
1.0
102
RTVSPost2010PropOp57
 70
     1
102
RTVSPropertyOp0
 70
     1
102
RTVSPropertyOp1
 70
     1
102
RTVSPropertyOp2
 70
     1
102
RTVSPropertyOp3
 70
     1
102
RTVSPropertyOp4
 70
     1
102
RTVSPropertyOp5
 70
     1
102
RTVSPropertyOp6
 70
     1
102
RTVSPropertyOp7
 70
     1
102
RTVSPropertyOp8
 70
     1
102
RTVSPropertyOp9
 70
     1
102
RTVSPropertyOp10
 70
     1
102
RTVSPropertyOp11
 70
     1
102
RTVSPropertyOp12
 70
     1
102
RTVSPropertyOp13
 70
     1
102
RTVSPropertyOp14
 70
     1
102
RTVSPropertyOp15
 70
     1
102
RTVSPropertyOp16
 70
     1
102
RTVSPropertyOp17
 70
     1
102
RTVSPropertyOp18
 70
     1
102
RTVSPropertyOp19
 70
     1
102
RTVSPropertyOp20
 70
     1
102
RTVSPropertyOp21
 70
     1
102
RTVSPropertyOp22
 70
     1
102
RTVSPropertyOp23
 70
     1
102
RTVSPropertyOp24
 70
     1
102
RTVSPropertyOp25
 70
     1
102
RTVSPropertyOp26
 70
     1
102
RTVSPropertyOp27
 70
     1
102
RTVSPropertyOp28
 70
     1
102
RTVSPropertyOp29
 70
     1
102
RTVSPropertyOp30
 70
     1
102
RTVSPropertyOp31
 70
     1
102
RTVSPropertyOp32
 70
     1
102
RTVSPropertyOp33
 70
     1
102
RTVSPropertyOp34
 70
     1
102
RTVSPropertyOp35
 70
     1
102
RTVSPropertyOp36
 70
     1
102
RTVSPropertyOp37
 70
     1
102
RTVSPropertyOp38
 70
     1
102
RTVSPropertyOp39
 70
     1
102
RTVSPropertyOp40
 70
     1
102
RTVSPropertyOp41
 70
     1
102
RTVSPropertyOp42
 70
     1
102
RTVSPropertyOp43
 70
     1
102
RTVSPropertyOp44
 70
     1
102
RTVSPropertyOp45
 70
     1
102
RTVSPropertyOp46
 70
     1
102
RTVSPropertyOp47
 70
     1
102
RTVSPropertyOp48
 70
     1
102
RTVSPropertyOp49
 70
     1
102
RTVSPropertyOp50
 70
     1
102
RTVSPropertyOp51
 70
     0
102
RTVSPropertyOp52
 70
     0
102
RTVSPropertyOp53
 70
     1
102
RTVSPropertyOp54
 70
     1
102
RTVSPropertyOp55
 70
     1
102
RTVSPropertyOp56
 70
     1
102
RTVSPropertyOp57
 70
     1
102
RTVSPropertyOp58
 70
     1
102
RTVSPropertyOp59
 70
     1
102
RTVSPropertyOp60
 70
     1
102
RTVSPropertyOp61
 70
     1
102
RTVSPropertyOp62
 70
     1
  0
XRECORD
  5
BD6
102
{ACAD_REACTORS
330
BD5
102
}
330
BD5
100
AcDbXrecord
280
     1
102
RTVSPost2010Prop28
280
     0
102
RTVSPost2010PropOp28
 70
     1
102
RTVSPost2010Prop29
280
     1
102
RTVSPost2010PropOp29
 70
     1
102
RTVSPost2010Prop30
280
     1
102
RTVSPost2010PropOp30
 70
     1
102
RTVSPost2010Prop31
280
     0
102
RTVSPost2010PropOp31
 70
     1
102
RTVSPost2010Prop32
280
     0
102
RTVSPost2010PropOp32
 70
     1
102
RTVSPost2010Prop33
280
     0
102
RTVSPost2010PropOp33
 70
     1
102
RTVSPost2010Prop34
280
     0
102
RTVSPost2010PropOp34
 70
     1
102
RTVSPost2010Prop35
280
     0
102
RTVSPost2010PropOp35
 70
     1
102
RTVSPost2010Prop36
280
     0
102
RTVSPost2010PropOp36
 70
     1
102
RTVSPost2010Prop37
 90
       50
102
RTVSPost2010PropOp37
 70
     1
102
RTVSPost2010Prop38
140
0.0
102
RTVSPost2010PropOp38
 70
     1
102
RTVSPost2010Prop39
140
1.0
102
RTVSPost2010PropOp39
 70
     1
102
RTVSPost2010Prop40
 90
        0
102
RTVSPost2010PropOp40
 70
     1
102
RTVSPost2010Prop41ColorIndex
 90
       18
102
RTVSPost2010Prop41ColorRGB
 90
        0
102
RTVSPost2010PropOp41
 70
     1
102
RTVSPost2010Prop42
 90
       50
102
RTVSPost2010PropOp42
 70
     1
102
RTVSPost2010Prop43
 90
        3
102
RTVSPost2010PropOp43
 70
     1
102
RTVSPost2010Prop44ColorIndex
 90
        5
102
RTVSPost2010Prop44ColorRGB
 90
      255
102
RTVSPost2010PropOp44
 70
     1
102
RTVSPost2010Prop45
280
     0
102
RTVSPost2010PropOp45
 70
     1
102
RTVSPost2010Prop46
 90
       50
102
RTVSPost2010PropOp46
 70
     1
102
RTVSPost2010Prop47
 90
       50
102
RTVSPost2010PropOp47
 70
     1
102
RTVSPost2010Prop48
 90
       50
102
RTVSPost2010PropOp48
 70
     1
102
RTVSPost2010Prop49
280
     0
102
RTVSPost2010PropOp49
 70
     1
102
RTVSPost2010Prop50
 90
       50
102
RTVSPost2010PropOp50
 70
     1
102
RTVSPost2010Prop51ColorIndex
 90
      256
102
RTVSPost2010Prop51ColorRGB
 90
-16777216
102
RTVSPost2010PropOp51
 70
     0
102
RTVSPost2010Prop52
140
1.0
102
RTVSPost2010PropOp52
 70
     0
102
RTVSPost2010Prop53
 90
        2
102
RTVSPost2010PropOp53
 70
     1
102
RTVSPost2010Prop54
  1
strokes_ogs.tif
102
RTVSPost2010PropOp54
 70
     1
102
RTVSPost2010Prop55
280
     0
102
RTVSPost2010PropOp55
 70
     1
102
RTVSPost2010Prop56
140
1.0
102
RTVSPost2010PropOp56
 70
     1
102
RTVSPost2010Prop57
140
1.0
102
RTVSPost2010PropOp57
 70
     1
102
RTVSPropertyOp0
 70
     1
102
RTVSPropertyOp1
 70
     1
102
RTVSPropertyOp2
 70
     1
102
RTVSPropertyOp3
 70
     1
102
RTVSPropertyOp4
 70
     1
102
RTVSPropertyOp5
 70
     1
102
RTVSPropertyOp6
 70
     1
102
RTVSPropertyOp7
 70
     1
102
RTVSPropertyOp8
 70
     1
102
RTVSPropertyOp9
 70
     1
102
RTVSPropertyOp10
 70
     1
102
RTVSPropertyOp11
 70
     1
102
RTVSPropertyOp12
 70
     1
102
RTVSPropertyOp13
 70
     1
102
RTVSPropertyOp14
 70
     1
102
RTVSPropertyOp15
 70
     1
102
RTVSPropertyOp16
 70
     1
102
RTVSPropertyOp17
 70
     1
102
RTVSPropertyOp18
 70
     1
102
RTVSPropertyOp19
 70
     1
102
RTVSPropertyOp20
 70
     1
102
RTVSPropertyOp21
 70
     1
102
RTVSPropertyOp22
 70
     1
102
RTVSPropertyOp23
 70
     1
102
RTVSPropertyOp24
 70
     1
102
RTVSPropertyOp25
 70
     1
102
RTVSPropertyOp26
 70
     1
102
RTVSPropertyOp27
 70
     1
102
RTVSPropertyOp28
 70
     1
102
RTVSPropertyOp29
 70
     1
102
RTVSPropertyOp30
 70
     1
102
RTVSPropertyOp31
 70
     1
102
RTVSPropertyOp32
 70
     1
102
RTVSPropertyOp33
 70
     1
102
RTVSPropertyOp34
 70
     1
102
RTVSPropertyOp35
 70
     1
102
RTVSPropertyOp36
 70
     1
102
RTVSPropertyOp37
 70
     1
102
RTVSPropertyOp38
 70
     1
102
RTVSPropertyOp39
 70
     1
102
RTVSPropertyOp40
 70
     1
102
RTVSPropertyOp41
 70
     1
102
RTVSPropertyOp42
 70
     1
102
RTVSPropertyOp43
 70
     1
102
RTVSPropertyOp44
 70
     1
102
RTVSPropertyOp45
 70
     1
102
RTVSPropertyOp46
 70
     1
102
RTVSPropertyOp47
 70
     1
102
RTVSPropertyOp48
 70
     1
102
RTVSPropertyOp49
 70
     1
102
RTVSPropertyOp50
 70
     1
102
RTVSPropertyOp51
 70
     0
102
RTVSPropertyOp52
 70
     0
102
RTVSPropertyOp53
 70
     1
102
RTVSPropertyOp54
 70
     1
102
RTVSPropertyOp55
 70
     1
102
RTVSPropertyOp56
 70
     1
102
RTVSPropertyOp57
 70
     1
102
RTVSPropertyOp58
 70
     1
102
RTVSPropertyOp59
 70
     1
102
RTVSPropertyOp60
 70
     1
102
RTVSPropertyOp61
 70
     1
102
RTVSPropertyOp62
 70
     1
  0
XRECORD
  5
BF2
102
{ACAD_REACTORS
330
BF1
102
}
330
BF1
100
AcDbXrecord
280
     1
102
RTVSPost2010Prop28
280
     0
102
RTVSPost2010PropOp28
 70
     1
102
RTVSPost2010Prop29
280
     1
102
RTVSPost2010PropOp29
 70
     1
102
RTVSPost2010Prop30
280
     1
102
RTVSPost2010PropOp30
 70
     1
102
RTVSPost2010Prop31
280
     0
102
RTVSPost2010PropOp31
 70
     1
102
RTVSPost2010Prop32
280
     0
102
RTVSPost2010PropOp32
 70
     1
102
RTVSPost2010Prop33
280
     0
102
RTVSPost2010PropOp33
 70
     1
102
RTVSPost2010Prop34
280
     0
102
RTVSPost2010PropOp34
 70
     1
102
RTVSPost2010Prop35
280
     0
102
RTVSPost2010PropOp35
 70
     1
102
RTVSPost2010Prop36
280
     0
102
RTVSPost2010PropOp36
 70
     1
102
RTVSPost2010Prop37
 90
       50
102
RTVSPost2010PropOp37
 70
     0
102
RTVSPost2010Prop38
140
0.0
102
RTVSPost2010PropOp38
 70
     0
102
RTVSPost2010Prop39
140
1.0
102
RTVSPost2010PropOp39
 70
     0
102
RTVSPost2010Prop40
 90
        0
102
RTVSPost2010PropOp40
 70
     0
102
RTVSPost2010Prop41ColorIndex
 90
       18
102
RTVSPost2010Prop41ColorRGB
 90
        0
102
RTVSPost2010PropOp41
 70
     0
102
RTVSPost2010Prop42
 90
       50
102
RTVSPost2010PropOp42
 70
     0
102
RTVSPost2010Prop43
 90
        3
102
RTVSPost2010PropOp43
 70
     0
102
RTVSPost2010Prop44ColorIndex
 90
        5
102
RTVSPost2010Prop44ColorRGB
 90
      255
102
RTVSPost2010PropOp44
 70
     0
102
RTVSPost2010Prop45
280
     0
102
RTVSPost2010PropOp45
 70
     1
102
RTVSPost2010Prop46
 90
       50
102
RTVSPost2010PropOp46
 70
     0
102
RTVSPost2010Prop47
 90
       50
102
RTVSPost2010PropOp47
 70
     0
102
RTVSPost2010Prop48
 90
       50
102
RTVSPost2010PropOp48
 70
     0
102
RTVSPost2010Prop49
280
     0
102
RTVSPost2010PropOp49
 70
     1
102
RTVSPost2010Prop50
 90
       50
102
RTVSPost2010PropOp50
 70
     0
102
RTVSPost2010Prop51ColorIndex
 90
      256
102
RTVSPost2010Prop51ColorRGB
 90
-16777216
102
RTVSPost2010PropOp51
 70
     0
102
RTVSPost2010Prop52
140
1.0
102
RTVSPost2010PropOp52
 70
     0
102
RTVSPost2010Prop53
 90
        2
102
RTVSPost2010PropOp53
 70
     0
102
RTVSPost2010Prop54
  1
strokes_ogs.tif
102
RTVSPost2010PropOp54
 70
     0
102
RTVSPost2010Prop55
280
     0
102
RTVSPost2010PropOp55
 70
     1
102
RTVSPost2010Prop56
140
1.0
102
RTVSPost2010PropOp56
 70
     0
102
RTVSPost2010Prop57
140
1.0
102
RTVSPost2010PropOp57
 70
     0
102
RTVSPropertyOp0
 70
     0
102
RTVSPropertyOp1
 70
     0
102
RTVSPropertyOp2
 70
     0
102
RTVSPropertyOp3
 70
     0
102
RTVSPropertyOp4
 70
     0
102
RTVSPropertyOp5
 70
     0
102
RTVSPropertyOp6
 70
     0
102
RTVSPropertyOp7
 70
     0
102
RTVSPropertyOp8
 70
     0
102
RTVSPropertyOp9
 70
     0
102
RTVSPropertyOp10
 70
     0
102
RTVSPropertyOp11
 70
     0
102
RTVSPropertyOp12
 70
     0
102
RTVSPropertyOp13
 70
     0
102
RTVSPropertyOp14
 70
     2
102
RTVSPropertyOp15
 70
     0
102
RTVSPropertyOp16
 70
     0
102
RTVSPropertyOp17
 70
     0
102
RTVSPropertyOp18
 70
     0
102
RTVSPropertyOp19
 70
     0
102
RTVSPropertyOp20
 70
     0
102
RTVSPropertyOp21
 70
     0
102
RTVSPropertyOp22
 70
     0
102
RTVSPropertyOp23
 70
     0
102
RTVSPropertyOp24
 70
     0
102
RTVSPropertyOp25
 70
     0
102
RTVSPropertyOp26
 70
     0
102
RTVSPropertyOp27
 70
     0
102
RTVSPropertyOp28
 70
     1
102
RTVSPropertyOp29
 70
     1
102
RTVSPropertyOp30
 70
     1
102
RTVSPropertyOp31
 70
     1
102
RTVSPropertyOp32
 70
     1
102
RTVSPropertyOp33
 70
     1
102
RTVSPropertyOp34
 70
     1
102
RTVSPropertyOp35
 70
     1
102
RTVSPropertyOp36
 70
     1
102
RTVSPropertyOp37
 70
     0
102
RTVSPropertyOp38
 70
     0
102
RTVSPropertyOp39
 70
     0
102
RTVSPropertyOp40
 70
     0
102
RTVSPropertyOp41
 70
     0
102
RTVSPropertyOp42
 70
     0
102
RTVSPropertyOp43
 70
     0
102
RTVSPropertyOp44
 70
     0
102
RTVSPropertyOp45
 70
     1
102
RTVSPropertyOp46
 70
     0
102
RTVSPropertyOp47
 70
     0
102
RTVSPropertyOp48
 70
     0
102
RTVSPropertyOp49
 70
     1
102
RTVSPropertyOp50
 70
     0
102
RTVSPropertyOp51
 70
     0
102
RTVSPropertyOp52
 70
     0
102
RTVSPropertyOp53
 70
     0
102
RTVSPropertyOp54
 70
     0
102
RTVSPropertyOp55
 70
     1
102
RTVSPropertyOp56
 70
     0
102
RTVSPropertyOp57
 70
     0
102
RTVSPropertyOp58
 70
     0
102
RTVSPropertyOp59
 70
     0
102
RTVSPropertyOp60
 70
     0
102
RTVSPropertyOp61
 70
     0
102
RTVSPropertyOp62
 70
     0
  0
XRECORD
  5
BE2
102
{ACAD_REACTORS
330
BE1
102
}
330
BE1
100
AcDbXrecord
280
     1
102
RTVSPost2010Prop28
280
     0
102
RTVSPost2010PropOp28
 70
     1
102
RTVSPost2010Prop29
280
     1
102
RTVSPost2010PropOp29
 70
     1
102
RTVSPost2010Prop30
280
     1
102
RTVSPost2010PropOp30
 70
     1
102
RTVSPost2010Prop31
280
     0
102
RTVSPost2010PropOp31
 70
     1
102
RTVSPost2010Prop32
280
     0
102
RTVSPost2010PropOp32
 70
     1
102
RTVSPost2010Prop33
280
     0
102
RTVSPost2010PropOp33
 70
     1
102
RTVSPost2010Prop34
280
     0
102
RTVSPost2010PropOp34
 70
     1
102
RTVSPost2010Prop35
280
     0
102
RTVSPost2010PropOp35
 70
     1
102
RTVSPost2010Prop36
280
     0
102
RTVSPost2010PropOp36
 70
     1
102
RTVSPost2010Prop37
 90
       50
102
RTVSPost2010PropOp37
 70
     1
102
RTVSPost2010Prop38
140
0.0
102
RTVSPost2010PropOp38
 70
     1
102
RTVSPost2010Prop39
140
1.0
102
RTVSPost2010PropOp39
 70
     1
102
RTVSPost2010Prop40
 90
        0
102
RTVSPost2010PropOp40
 70
     1
102
RTVSPost2010Prop41ColorIndex
 90
       18
102
RTVSPost2010Prop41ColorRGB
 90
        0
102
RTVSPost2010PropOp41
 70
     1
102
RTVSPost2010Prop42
 90
       50
102
RTVSPost2010PropOp42
 70
     1
102
RTVSPost2010Prop43
 90
        3
102
RTVSPost2010PropOp43
 70
     1
102
RTVSPost2010Prop44ColorIndex
 90
        5
102
RTVSPost2010Prop44ColorRGB
 90
      255
102
RTVSPost2010PropOp44
 70
     1
102
RTVSPost2010Prop45
280
     0
102
RTVSPost2010PropOp45
 70
     1
102
RTVSPost2010Prop46
 90
       50
102
RTVSPost2010PropOp46
 70
     1
102
RTVSPost2010Prop47
 90
       50
102
RTVSPost2010PropOp47
 70
     1
102
RTVSPost2010Prop48
 90
       50
102
RTVSPost2010PropOp48
 70
     1
102
RTVSPost2010Prop49
280
     0
102
RTVSPost2010PropOp49
 70
     1
102
RTVSPost2010Prop50
 90
       50
102
RTVSPost2010PropOp50
 70
     1
102
RTVSPost2010Prop51ColorIndex
 90
      256
102
RTVSPost2010Prop51ColorRGB
 90
-16777216
102
RTVSPost2010PropOp51
 70
     0
102
RTVSPost2010Prop52
140
1.0
102
RTVSPost2010PropOp52
 70
     0
102
RTVSPost2010Prop53
 90
        2
102
RTVSPost2010PropOp53
 70
     1
102
RTVSPost2010Prop54
  1
strokes_ogs.tif
102
RTVSPost2010PropOp54
 70
     1
102
RTVSPost2010Prop55
280
     0
102
RTVSPost2010PropOp55
 70
     1
102
RTVSPost2010Prop56
140
1.0
102
RTVSPost2010PropOp56
 70
     1
102
RTVSPost2010Prop57
140
1.0
102
RTVSPost2010PropOp57
 70
     1
102
RTVSPropertyOp0
 70
     1
102
RTVSPropertyOp1
 70
     1
102
RTVSPropertyOp2
 70
     1
102
RTVSPropertyOp3
 70
     1
102
RTVSPropertyOp4
 70
     1
102
RTVSPropertyOp5
 70
     1
102
RTVSPropertyOp6
 70
     1
102
RTVSPropertyOp7
 70
     1
102
RTVSPropertyOp8
 70
     1
102
RTVSPropertyOp9
 70
     1
102
RTVSPropertyOp10
 70
     1
102
RTVSPropertyOp11
 70
     1
102
RTVSPropertyOp12
 70
     1
102
RTVSPropertyOp13
 70
     1
102
RTVSPropertyOp14
 70
     1
102
RTVSPropertyOp15
 70
     1
102
RTVSPropertyOp16
 70
     1
102
RTVSPropertyOp17
 70
     1
102
RTVSPropertyOp18
 70
     1
102
RTVSPropertyOp19
 70
     1
102
RTVSPropertyOp20
 70
     1
102
RTVSPropertyOp21
 70
     1
102
RTVSPropertyOp22
 70
     1
102
RTVSPropertyOp23
 70
     1
102
RTVSPropertyOp24
 70
     1
102
RTVSPropertyOp25
 70
     1
102
RTVSPropertyOp26
 70
     1
102
RTVSPropertyOp27
 70
     1
102
RTVSPropertyOp28
 70
     1
102
RTVSPropertyOp29
 70
     1
102
RTVSPropertyOp30
 70
     1
102
RTVSPropertyOp31
 70
     1
102
RTVSPropertyOp32
 70
     1
102
RTVSPropertyOp33
 70
     1
102
RTVSPropertyOp34
 70
     1
102
RTVSPropertyOp35
 70
     1
102
RTVSPropertyOp36
 70
     1
102
RTVSPropertyOp37
 70
     1
102
RTVSPropertyOp38
 70
     1
102
RTVSPropertyOp39
 70
     1
102
RTVSPropertyOp40
 70
     1
102
RTVSPropertyOp41
 70
     1
102
RTVSPropertyOp42
 70
     1
102
RTVSPropertyOp43
 70
     1
102
RTVSPropertyOp44
 70
     1
102
RTVSPropertyOp45
 70
     1
102
RTVSPropertyOp46
 70
     1
102
RTVSPropertyOp47
 70
     1
102
RTVSPropertyOp48
 70
     1
102
RTVSPropertyOp49
 70
     1
102
RTVSPropertyOp50
 70
     1
102
RTVSPropertyOp51
 70
     0
102
RTVSPropertyOp52
 70
     0
102
RTVSPropertyOp53
 70
     1
102
RTVSPropertyOp54
 70
     1
102
RTVSPropertyOp55
 70
     1
102
RTVSPropertyOp56
 70
     1
102
RTVSPropertyOp57
 70
     1
102
RTVSPropertyOp58
 70
     1
102
RTVSPropertyOp59
 70
     1
102
RTVSPropertyOp60
 70
     1
102
RTVSPropertyOp61
 70
     1
102
RTVSPropertyOp62
 70
     1
  0
XRECORD
  5
BF4
102
{ACAD_REACTORS
330
BF3
102
}
330
BF3
100
AcDbXrecord
280
     1
102
RTVSPost2010Prop28
280
     0
102
RTVSPost2010PropOp28
 70
     1
102
RTVSPost2010Prop29
280
     1
102
RTVSPost2010PropOp29
 70
     1
102
RTVSPost2010Prop30
280
     1
102
RTVSPost2010PropOp30
 70
     1
102
RTVSPost2010Prop31
280
     0
102
RTVSPost2010PropOp31
 70
     1
102
RTVSPost2010Prop32
280
     0
102
RTVSPost2010PropOp32
 70
     1
102
RTVSPost2010Prop33
280
     0
102
RTVSPost2010PropOp33
 70
     1
102
RTVSPost2010Prop34
280
     0
102
RTVSPost2010PropOp34
 70
     1
102
RTVSPost2010Prop35
280
     0
102
RTVSPost2010PropOp35
 70
     1
102
RTVSPost2010Prop36
280
     0
102
RTVSPost2010PropOp36
 70
     1
102
RTVSPost2010Prop37
 90
       50
102
RTVSPost2010PropOp37
 70
     0
102
RTVSPost2010Prop38
140
0.0
102
RTVSPost2010PropOp38
 70
     0
102
RTVSPost2010Prop39
140
1.0
102
RTVSPost2010PropOp39
 70
     0
102
RTVSPost2010Prop40
 90
        0
102
RTVSPost2010PropOp40
 70
     0
102
RTVSPost2010Prop41ColorIndex
 90
       18
102
RTVSPost2010Prop41ColorRGB
 90
        0
102
RTVSPost2010PropOp41
 70
     0
102
RTVSPost2010Prop42
 90
       50
102
RTVSPost2010PropOp42
 70
     0
102
RTVSPost2010Prop43
 90
        3
102
RTVSPost2010PropOp43
 70
     0
102
RTVSPost2010Prop44ColorIndex
 90
        5
102
RTVSPost2010Prop44ColorRGB
 90
      255
102
RTVSPost2010PropOp44
 70
     0
102
RTVSPost2010Prop45
280
     0
102
RTVSPost2010PropOp45
 70
     1
102
RTVSPost2010Prop46
 90
       50
102
RTVSPost2010PropOp46
 70
     0
102
RTVSPost2010Prop47
 90
       50
102
RTVSPost2010PropOp47
 70
     0
102
RTVSPost2010Prop48
 90
       50
102
RTVSPost2010PropOp48
 70
     0
102
RTVSPost2010Prop49
280
     0
102
RTVSPost2010PropOp49
 70
     1
102
RTVSPost2010Prop50
 90
       50
102
RTVSPost2010PropOp50
 70
     0
102
RTVSPost2010Prop51ColorIndex
 90
      256
102
RTVSPost2010Prop51ColorRGB
 90
-16777216
102
RTVSPost2010PropOp51
 70
     0
102
RTVSPost2010Prop52
140
1.0
102
RTVSPost2010PropOp52
 70
     0
102
RTVSPost2010Prop53
 90
        2
102
RTVSPost2010PropOp53
 70
     0
102
RTVSPost2010Prop54
  1
strokes_ogs.tif
102
RTVSPost2010PropOp54
 70
     0
102
RTVSPost2010Prop55
280
     0
102
RTVSPost2010PropOp55
 70
     1
102
RTVSPost2010Prop56
140
1.0
102
RTVSPost2010PropOp56
 70
     0
102
RTVSPost2010Prop57
140
1.0
102
RTVSPost2010PropOp57
 70
     0
102
RTVSPropertyOp0
 70
     0
102
RTVSPropertyOp1
 70
     0
102
RTVSPropertyOp2
 70
     0
102
RTVSPropertyOp3
 70
     0
102
RTVSPropertyOp4
 70
     0
102
RTVSPropertyOp5
 70
     0
102
RTVSPropertyOp6
 70
     0
102
RTVSPropertyOp7
 70
     0
102
RTVSPropertyOp8
 70
     0
102
RTVSPropertyOp9
 70
     0
102
RTVSPropertyOp10
 70
     0
102
RTVSPropertyOp11
 70
     0
102
RTVSPropertyOp12
 70
     0
102
RTVSPropertyOp13
 70
     0
102
RTVSPropertyOp14
 70
     2
102
RTVSPropertyOp15
 70
     0
102
RTVSPropertyOp16
 70
     0
102
RTVSPropertyOp17
 70
     0
102
RTVSPropertyOp18
 70
     0
102
RTVSPropertyOp19
 70
     0
102
RTVSPropertyOp20
 70
     0
102
RTVSPropertyOp21
 70
     0
102
RTVSPropertyOp22
 70
     0
102
RTVSPropertyOp23
 70
     0
102
RTVSPropertyOp24
 70
     0
102
RTVSPropertyOp25
 70
     0
102
RTVSPropertyOp26
 70
     0
102
RTVSPropertyOp27
 70
     0
102
RTVSPropertyOp28
 70
     1
102
RTVSPropertyOp29
 70
     1
102
RTVSPropertyOp30
 70
     1
102
RTVSPropertyOp31
 70
     1
102
RTVSPropertyOp32
 70
     1
102
RTVSPropertyOp33
 70
     1
102
RTVSPropertyOp34
 70
     1
102
RTVSPropertyOp35
 70
     1
102
RTVSPropertyOp36
 70
     1
102
RTVSPropertyOp37
 70
     0
102
RTVSPropertyOp38
 70
     0
102
RTVSPropertyOp39
 70
     0
102
RTVSPropertyOp40
 70
     0
102
RTVSPropertyOp41
 70
     0
102
RTVSPropertyOp42
 70
     0
102
RTVSPropertyOp43
 70
     0
102
RTVSPropertyOp44
 70
     0
102
RTVSPropertyOp45
 70
     1
102
RTVSPropertyOp46
 70
     0
102
RTVSPropertyOp47
 70
     0
102
RTVSPropertyOp48
 70
     0
102
RTVSPropertyOp49
 70
     1
102
RTVSPropertyOp50
 70
     0
102
RTVSPropertyOp51
 70
     0
102
RTVSPropertyOp52
 70
     0
102
RTVSPropertyOp53
 70
     0
102
RTVSPropertyOp54
 70
     0
102
RTVSPropertyOp55
 70
     1
102
RTVSPropertyOp56
 70
     0
102
RTVSPropertyOp57
 70
     0
102
RTVSPropertyOp58
 70
     0
102
RTVSPropertyOp59
 70
     0
102
RTVSPropertyOp60
 70
     0
102
RTVSPropertyOp61
 70
     0
102
RTVSPropertyOp62
 70
     0
  0
XRECORD
  5
BDA
102
{ACAD_REACTORS
330
BD9
102
}
330
BD9
100
AcDbXrecord
280
     1
102
RTVSPost2010Prop28
280
     0
102
RTVSPost2010PropOp28
 70
     1
102
RTVSPost2010Prop29
280
     1
102
RTVSPost2010PropOp29
 70
     1
102
RTVSPost2010Prop30
280
     1
102
RTVSPost2010PropOp30
 70
     1
102
RTVSPost2010Prop31
280
     0
102
RTVSPost2010PropOp31
 70
     1
102
RTVSPost2010Prop32
280
     0
102
RTVSPost2010PropOp32
 70
     1
102
RTVSPost2010Prop33
280
     0
102
RTVSPost2010PropOp33
 70
     1
102
RTVSPost2010Prop34
280
     0
102
RTVSPost2010PropOp34
 70
     1
102
RTVSPost2010Prop35
280
     0
102
RTVSPost2010PropOp35
 70
     1
102
RTVSPost2010Prop36
280
     0
102
RTVSPost2010PropOp36
 70
     1
102
RTVSPost2010Prop37
 90
       50
102
RTVSPost2010PropOp37
 70
     1
102
RTVSPost2010Prop38
140
0.0
102
RTVSPost2010PropOp38
 70
     1
102
RTVSPost2010Prop39
140
1.0
102
RTVSPost2010PropOp39
 70
     1
102
RTVSPost2010Prop40
 90
        0
102
RTVSPost2010PropOp40
 70
     1
102
RTVSPost2010Prop41ColorIndex
 90
       18
102
RTVSPost2010Prop41ColorRGB
 90
        0
102
RTVSPost2010PropOp41
 70
     1
102
RTVSPost2010Prop42
 90
       50
102
RTVSPost2010PropOp42
 70
     1
102
RTVSPost2010Prop43
 90
        3
102
RTVSPost2010PropOp43
 70
     1
102
RTVSPost2010Prop44ColorIndex
 90
        5
102
RTVSPost2010Prop44ColorRGB
 90
      255
102
RTVSPost2010PropOp44
 70
     1
102
RTVSPost2010Prop45
280
     0
102
RTVSPost2010PropOp45
 70
     1
102
RTVSPost2010Prop46
 90
       50
102
RTVSPost2010PropOp46
 70
     1
102
RTVSPost2010Prop47
 90
       50
102
RTVSPost2010PropOp47
 70
     1
102
RTVSPost2010Prop48
 90
       50
102
RTVSPost2010PropOp48
 70
     1
102
RTVSPost2010Prop49
280
     0
102
RTVSPost2010PropOp49
 70
     1
102
RTVSPost2010Prop50
 90
       50
102
RTVSPost2010PropOp50
 70
     1
102
RTVSPost2010Prop51ColorIndex
 90
      256
102
RTVSPost2010Prop51ColorRGB
 90
-16777216
102
RTVSPost2010PropOp51
 70
     0
102
RTVSPost2010Prop52
140
1.0
102
RTVSPost2010PropOp52
 70
     0
102
RTVSPost2010Prop53
 90
        2
102
RTVSPost2010PropOp53
 70
     1
102
RTVSPost2010Prop54
  1
strokes_ogs.tif
102
RTVSPost2010PropOp54
 70
     1
102
RTVSPost2010Prop55
280
     0
102
RTVSPost2010PropOp55
 70
     1
102
RTVSPost2010Prop56
140
1.0
102
RTVSPost2010PropOp56
 70
     1
102
RTVSPost2010Prop57
140
1.0
102
RTVSPost2010PropOp57
 70
     1
102
RTVSPropertyOp0
 70
     1
102
RTVSPropertyOp1
 70
     1
102
RTVSPropertyOp2
 70
     1
102
RTVSPropertyOp3
 70
     1
102
RTVSPropertyOp4
 70
     1
102
RTVSPropertyOp5
 70
     1
102
RTVSPropertyOp6
 70
     1
102
RTVSPropertyOp7
 70
     1
102
RTVSPropertyOp8
 70
     1
102
RTVSPropertyOp9
 70
     1
102
RTVSPropertyOp10
 70
     1
102
RTVSPropertyOp11
 70
     1
102
RTVSPropertyOp12
 70
     1
102
RTVSPropertyOp13
 70
     1
102
RTVSPropertyOp14
 70
     1
102
RTVSPropertyOp15
 70
     1
102
RTVSPropertyOp16
 70
     1
102
RTVSPropertyOp17
 70
     1
102
RTVSPropertyOp18
 70
     1
102
RTVSPropertyOp19
 70
     1
102
RTVSPropertyOp20
 70
     1
102
RTVSPropertyOp21
 70
     1
102
RTVSPropertyOp22
 70
     1
102
RTVSPropertyOp23
 70
     1
102
RTVSPropertyOp24
 70
     1
102
RTVSPropertyOp25
 70
     1
102
RTVSPropertyOp26
 70
     1
102
RTVSPropertyOp27
 70
     1
102
RTVSPropertyOp28
 70
     1
102
RTVSPropertyOp29
 70
     1
102
RTVSPropertyOp30
 70
     1
102
RTVSPropertyOp31
 70
     1
102
RTVSPropertyOp32
 70
     1
102
RTVSPropertyOp33
 70
     1
102
RTVSPropertyOp34
 70
     1
102
RTVSPropertyOp35
 70
     1
102
RTVSPropertyOp36
 70
     1
102
RTVSPropertyOp37
 70
     1
102
RTVSPropertyOp38
 70
     1
102
RTVSPropertyOp39
 70
     1
102
RTVSPropertyOp40
 70
     1
102
RTVSPropertyOp41
 70
     1
102
RTVSPropertyOp42
 70
     1
102
RTVSPropertyOp43
 70
     1
102
RTVSPropertyOp44
 70
     1
102
RTVSPropertyOp45
 70
     1
102
RTVSPropertyOp46
 70
     1
102
RTVSPropertyOp47
 70
     1
102
RTVSPropertyOp48
 70
     1
102
RTVSPropertyOp49
 70
     1
102
RTVSPropertyOp50
 70
     1
102
RTVSPropertyOp51
 70
     0
102
RTVSPropertyOp52
 70
     0
102
RTVSPropertyOp53
 70
     1
102
RTVSPropertyOp54
 70
     1
102
RTVSPropertyOp55
 70
     1
102
RTVSPropertyOp56
 70
     1
102
RTVSPropertyOp57
 70
     1
102
RTVSPropertyOp58
 70
     1
102
RTVSPropertyOp59
 70
     1
102
RTVSPropertyOp60
 70
     1
102
RTVSPropertyOp61
 70
     1
102
RTVSPropertyOp62
 70
     1
  0
XRECORD
  5
BF0
102
{ACAD_REACTORS
330
BEF
102
}
330
BEF
100
AcDbXrecord
280
     1
102
RTVSPost2010Prop28
280
     0
102
RTVSPost2010PropOp28
 70
     1
102
RTVSPost2010Prop29
280
     1
102
RTVSPost2010PropOp29
 70
     1
102
RTVSPost2010Prop30
280
     1
102
RTVSPost2010PropOp30
 70
     1
102
RTVSPost2010Prop31
280
     0
102
RTVSPost2010PropOp31
 70
     1
102
RTVSPost2010Prop32
280
     0
102
RTVSPost2010PropOp32
 70
     1
102
RTVSPost2010Prop33
280
     0
102
RTVSPost2010PropOp33
 70
     1
102
RTVSPost2010Prop34
280
     0
102
RTVSPost2010PropOp34
 70
     1
102
RTVSPost2010Prop35
280
     0
102
RTVSPost2010PropOp35
 70
     1
102
RTVSPost2010Prop36
280
     0
102
RTVSPost2010PropOp36
 70
     1
102
RTVSPost2010Prop37
 90
       50
102
RTVSPost2010PropOp37
 70
     1
102
RTVSPost2010Prop38
140
0.0
102
RTVSPost2010PropOp38
 70
     1
102
RTVSPost2010Prop39
140
1.0
102
RTVSPost2010PropOp39
 70
     1
102
RTVSPost2010Prop40
 90
        0
102
RTVSPost2010PropOp40
 70
     1
102
RTVSPost2010Prop41ColorIndex
 90
       18
102
RTVSPost2010Prop41ColorRGB
 90
        0
102
RTVSPost2010PropOp41
 70
     1
102
RTVSPost2010Prop42
 90
       50
102
RTVSPost2010PropOp42
 70
     1
102
RTVSPost2010Prop43
 90
        3
102
RTVSPost2010PropOp43
 70
     1
102
RTVSPost2010Prop44ColorIndex
 90
        5
102
RTVSPost2010Prop44ColorRGB
 90
      255
102
RTVSPost2010PropOp44
 70
     1
102
RTVSPost2010Prop45
280
     0
102
RTVSPost2010PropOp45
 70
     1
102
RTVSPost2010Prop46
 90
       50
102
RTVSPost2010PropOp46
 70
     1
102
RTVSPost2010Prop47
 90
       50
102
RTVSPost2010PropOp47
 70
     1
102
RTVSPost2010Prop48
 90
       50
102
RTVSPost2010PropOp48
 70
     1
102
RTVSPost2010Prop49
280
     0
102
RTVSPost2010PropOp49
 70
     1
102
RTVSPost2010Prop50
 90
       50
102
RTVSPost2010PropOp50
 70
     1
102
RTVSPost2010Prop51ColorIndex
 90
      256
102
RTVSPost2010Prop51ColorRGB
 90
-16777216
102
RTVSPost2010PropOp51
 70
     0
102
RTVSPost2010Prop52
140
1.0
102
RTVSPost2010PropOp52
 70
     0
102
RTVSPost2010Prop53
 90
        2
102
RTVSPost2010PropOp53
 70
     1
102
RTVSPost2010Prop54
  1
strokes_ogs.tif
102
RTVSPost2010PropOp54
 70
     1
102
RTVSPost2010Prop55
280
     0
102
RTVSPost2010PropOp55
 70
     1
102
RTVSPost2010Prop56
140
1.0
102
RTVSPost2010PropOp56
 70
     1
102
RTVSPost2010Prop57
140
1.0
102
RTVSPost2010PropOp57
 70
     1
102
RTVSPropertyOp0
 70
     1
102
RTVSPropertyOp1
 70
     1
102
RTVSPropertyOp2
 70
     1
102
RTVSPropertyOp3
 70
     1
102
RTVSPropertyOp4
 70
     1
102
RTVSPropertyOp5
 70
     1
102
RTVSPropertyOp6
 70
     1
102
RTVSPropertyOp7
 70
     1
102
RTVSPropertyOp8
 70
     1
102
RTVSPropertyOp9
 70
     1
102
RTVSPropertyOp10
 70
     1
102
RTVSPropertyOp11
 70
     1
102
RTVSPropertyOp12
 70
     1
102
RTVSPropertyOp13
 70
     1
102
RTVSPropertyOp14
 70
     1
102
RTVSPropertyOp15
 70
     1
102
RTVSPropertyOp16
 70
     1
102
RTVSPropertyOp17
 70
     1
102
RTVSPropertyOp18
 70
     1
102
RTVSPropertyOp19
 70
     1
102
RTVSPropertyOp20
 70
     1
102
RTVSPropertyOp21
 70
     1
102
RTVSPropertyOp22
 70
     1
102
RTVSPropertyOp23
 70
     1
102
RTVSPropertyOp24
 70
     1
102
RTVSPropertyOp25
 70
     1
102
RTVSPropertyOp26
 70
     1
102
RTVSPropertyOp27
 70
     1
102
RTVSPropertyOp28
 70
     1
102
RTVSPropertyOp29
 70
     1
102
RTVSPropertyOp30
 70
     1
102
RTVSPropertyOp31
 70
     1
102
RTVSPropertyOp32
 70
     1
102
RTVSPropertyOp33
 70
     1
102
RTVSPropertyOp34
 70
     1
102
RTVSPropertyOp35
 70
     1
102
RTVSPropertyOp36
 70
     1
102
RTVSPropertyOp37
 70
     1
102
RTVSPropertyOp38
 70
     1
102
RTVSPropertyOp39
 70
     1
102
RTVSPropertyOp40
 70
     1
102
RTVSPropertyOp41
 70
     1
102
RTVSPropertyOp42
 70
     1
102
RTVSPropertyOp43
 70
     1
102
RTVSPropertyOp44
 70
     1
102
RTVSPropertyOp45
 70
     1
102
RTVSPropertyOp46
 70
     1
102
RTVSPropertyOp47
 70
     1
102
RTVSPropertyOp48
 70
     1
102
RTVSPropertyOp49
 70
     1
102
RTVSPropertyOp50
 70
     1
102
RTVSPropertyOp51
 70
     0
102
RTVSPropertyOp52
 70
     0
102
RTVSPropertyOp53
 70
     1
102
RTVSPropertyOp54
 70
     1
102
RTVSPropertyOp55
 70
     1
102
RTVSPropertyOp56
 70
     1
102
RTVSPropertyOp57
 70
     1
102
RTVSPropertyOp58
 70
     1
102
RTVSPropertyOp59
 70
     1
102
RTVSPropertyOp60
 70
     1
102
RTVSPropertyOp61
 70
     1
102
RTVSPropertyOp62
 70
     1
  0
XRECORD
  5
BEE
102
{ACAD_REACTORS
330
BED
102
}
330
BED
100
AcDbXrecord
280
     1
102
RTVSPost2010Prop28
280
     0
102
RTVSPost2010PropOp28
 70
     1
102
RTVSPost2010Prop29
280
     1
102
RTVSPost2010PropOp29
 70
     1
102
RTVSPost2010Prop30
280
     1
102
RTVSPost2010PropOp30
 70
     1
102
RTVSPost2010Prop31
280
     0
102
RTVSPost2010PropOp31
 70
     1
102
RTVSPost2010Prop32
280
     0
102
RTVSPost2010PropOp32
 70
     1
102
RTVSPost2010Prop33
280
     0
102
RTVSPost2010PropOp33
 70
     1
102
RTVSPost2010Prop34
280
     0
102
RTVSPost2010PropOp34
 70
     1
102
RTVSPost2010Prop35
280
     0
102
RTVSPost2010PropOp35
 70
     1
102
RTVSPost2010Prop36
280
     0
102
RTVSPost2010PropOp36
 70
     1
102
RTVSPost2010Prop37
 90
       50
102
RTVSPost2010PropOp37
 70
     1
102
RTVSPost2010Prop38
140
0.0
102
RTVSPost2010PropOp38
 70
     1
102
RTVSPost2010Prop39
140
1.0
102
RTVSPost2010PropOp39
 70
     1
102
RTVSPost2010Prop40
 90
        0
102
RTVSPost2010PropOp40
 70
     1
102
RTVSPost2010Prop41ColorIndex
 90
       18
102
RTVSPost2010Prop41ColorRGB
 90
        0
102
RTVSPost2010PropOp41
 70
     1
102
RTVSPost2010Prop42
 90
       50
102
RTVSPost2010PropOp42
 70
     1
102
RTVSPost2010Prop43
 90
        3
102
RTVSPost2010PropOp43
 70
     1
102
RTVSPost2010Prop44ColorIndex
 90
        5
102
RTVSPost2010Prop44ColorRGB
 90
      255
102
RTVSPost2010PropOp44
 70
     1
102
RTVSPost2010Prop45
280
     0
102
RTVSPost2010PropOp45
 70
     1
102
RTVSPost2010Prop46
 90
       50
102
RTVSPost2010PropOp46
 70
     1
102
RTVSPost2010Prop47
 90
       50
102
RTVSPost2010PropOp47
 70
     1
102
RTVSPost2010Prop48
 90
       50
102
RTVSPost2010PropOp48
 70
     1
102
RTVSPost2010Prop49
280
     0
102
RTVSPost2010PropOp49
 70
     1
102
RTVSPost2010Prop50
 90
       50
102
RTVSPost2010PropOp50
 70
     1
102
RTVSPost2010Prop51ColorIndex
 90
      256
102
RTVSPost2010Prop51ColorRGB
 90
-16777216
102
RTVSPost2010PropOp51
 70
     0
102
RTVSPost2010Prop52
140
1.0
102
RTVSPost2010PropOp52
 70
     0
102
RTVSPost2010Prop53
 90
        2
102
RTVSPost2010PropOp53
 70
     1
102
RTVSPost2010Prop54
  1
strokes_ogs.tif
102
RTVSPost2010PropOp54
 70
     1
102
RTVSPost2010Prop55
280
     0
102
RTVSPost2010PropOp55
 70
     1
102
RTVSPost2010Prop56
140
1.0
102
RTVSPost2010PropOp56
 70
     1
102
RTVSPost2010Prop57
140
1.0
102
RTVSPost2010PropOp57
 70
     1
102
RTVSPropertyOp0
 70
     1
102
RTVSPropertyOp1
 70
     1
102
RTVSPropertyOp2
 70
     1
102
RTVSPropertyOp3
 70
     1
102
RTVSPropertyOp4
 70
     1
102
RTVSPropertyOp5
 70
     1
102
RTVSPropertyOp6
 70
     1
102
RTVSPropertyOp7
 70
     1
102
RTVSPropertyOp8
 70
     1
102
RTVSPropertyOp9
 70
     1
102
RTVSPropertyOp10
 70
     1
102
RTVSPropertyOp11
 70
     1
102
RTVSPropertyOp12
 70
     1
102
RTVSPropertyOp13
 70
     1
102
RTVSPropertyOp14
 70
     1
102
RTVSPropertyOp15
 70
     1
102
RTVSPropertyOp16
 70
     1
102
RTVSPropertyOp17
 70
     1
102
RTVSPropertyOp18
 70
     1
102
RTVSPropertyOp19
 70
     1
102
RTVSPropertyOp20
 70
     1
102
RTVSPropertyOp21
 70
     1
102
RTVSPropertyOp22
 70
     1
102
RTVSPropertyOp23
 70
     1
102
RTVSPropertyOp24
 70
     1
102
RTVSPropertyOp25
 70
     1
102
RTVSPropertyOp26
 70
     1
102
RTVSPropertyOp27
 70
     1
102
RTVSPropertyOp28
 70
     1
102
RTVSPropertyOp29
 70
     1
102
RTVSPropertyOp30
 70
     1
102
RTVSPropertyOp31
 70
     1
102
RTVSPropertyOp32
 70
     1
102
RTVSPropertyOp33
 70
     1
102
RTVSPropertyOp34
 70
     1
102
RTVSPropertyOp35
 70
     1
102
RTVSPropertyOp36
 70
     1
102
RTVSPropertyOp37
 70
     1
102
RTVSPropertyOp38
 70
     1
102
RTVSPropertyOp39
 70
     1
102
RTVSPropertyOp40
 70
     1
102
RTVSPropertyOp41
 70
     1
102
RTVSPropertyOp42
 70
     1
102
RTVSPropertyOp43
 70
     1
102
RTVSPropertyOp44
 70
     1
102
RTVSPropertyOp45
 70
     1
102
RTVSPropertyOp46
 70
     1
102
RTVSPropertyOp47
 70
     1
102
RTVSPropertyOp48
 70
     1
102
RTVSPropertyOp49
 70
     1
102
RTVSPropertyOp50
 70
     1
102
RTVSPropertyOp51
 70
     0
102
RTVSPropertyOp52
 70
     0
102
RTVSPropertyOp53
 70
     1
102
RTVSPropertyOp54
 70
     1
102
RTVSPropertyOp55
 70
     1
102
RTVSPropertyOp56
 70
     1
102
RTVSPropertyOp57
 70
     1
102
RTVSPropertyOp58
 70
     1
102
RTVSPropertyOp59
 70
     1
102
RTVSPropertyOp60
 70
     1
102
RTVSPropertyOp61
 70
     1
102
RTVSPropertyOp62
 70
     1
  0
XRECORD
  5
BE8
102
{ACAD_REACTORS
330
BE7
102
}
330
BE7
100
AcDbXrecord
280
     1
102
RTVSPost2010Prop28
280
     0
102
RTVSPost2010PropOp28
 70
     1
102
RTVSPost2010Prop29
280
     1
102
RTVSPost2010PropOp29
 70
     1
102
RTVSPost2010Prop30
280
     1
102
RTVSPost2010PropOp30
 70
     1
102
RTVSPost2010Prop31
280
     0
102
RTVSPost2010PropOp31
 70
     1
102
RTVSPost2010Prop32
280
     0
102
RTVSPost2010PropOp32
 70
     1
102
RTVSPost2010Prop33
280
     0
102
RTVSPost2010PropOp33
 70
     1
102
RTVSPost2010Prop34
280
     0
102
RTVSPost2010PropOp34
 70
     1
102
RTVSPost2010Prop35
280
     0
102
RTVSPost2010PropOp35
 70
     1
102
RTVSPost2010Prop36
280
     0
102
RTVSPost2010PropOp36
 70
     1
102
RTVSPost2010Prop37
 90
       50
102
RTVSPost2010PropOp37
 70
     1
102
RTVSPost2010Prop38
140
0.0
102
RTVSPost2010PropOp38
 70
     1
102
RTVSPost2010Prop39
140
1.0
102
RTVSPost2010PropOp39
 70
     1
102
RTVSPost2010Prop40
 90
        0
102
RTVSPost2010PropOp40
 70
     1
102
RTVSPost2010Prop41ColorIndex
 90
       18
102
RTVSPost2010Prop41ColorRGB
 90
        0
102
RTVSPost2010PropOp41
 70
     1
102
RTVSPost2010Prop42
 90
       50
102
RTVSPost2010PropOp42
 70
     1
102
RTVSPost2010Prop43
 90
        3
102
RTVSPost2010PropOp43
 70
     1
102
RTVSPost2010Prop44ColorIndex
 90
        5
102
RTVSPost2010Prop44ColorRGB
 90
      255
102
RTVSPost2010PropOp44
 70
     1
102
RTVSPost2010Prop45
280
     0
102
RTVSPost2010PropOp45
 70
     1
102
RTVSPost2010Prop46
 90
       50
102
RTVSPost2010PropOp46
 70
     1
102
RTVSPost2010Prop47
 90
       50
102
RTVSPost2010PropOp47
 70
     1
102
RTVSPost2010Prop48
 90
       50
102
RTVSPost2010PropOp48
 70
     1
102
RTVSPost2010Prop49
280
     0
102
RTVSPost2010PropOp49
 70
     1
102
RTVSPost2010Prop50
 90
       50
102
RTVSPost2010PropOp50
 70
     1
102
RTVSPost2010Prop51ColorIndex
 90
      256
102
RTVSPost2010Prop51ColorRGB
 90
-16777216
102
RTVSPost2010PropOp51
 70
     0
102
RTVSPost2010Prop52
140
1.0
102
RTVSPost2010PropOp52
 70
     0
102
RTVSPost2010Prop53
 90
        2
102
RTVSPost2010PropOp53
 70
     1
102
RTVSPost2010Prop54
  1
strokes_ogs.tif
102
RTVSPost2010PropOp54
 70
     1
102
RTVSPost2010Prop55
280
     0
102
RTVSPost2010PropOp55
 70
     1
102
RTVSPost2010Prop56
140
1.0
102
RTVSPost2010PropOp56
 70
     1
102
RTVSPost2010Prop57
140
1.0
102
RTVSPost2010PropOp57
 70
     1
102
RTVSPropertyOp0
 70
     1
102
RTVSPropertyOp1
 70
     1
102
RTVSPropertyOp2
 70
     1
102
RTVSPropertyOp3
 70
     1
102
RTVSPropertyOp4
 70
     1
102
RTVSPropertyOp5
 70
     1
102
RTVSPropertyOp6
 70
     1
102
RTVSPropertyOp7
 70
     1
102
RTVSPropertyOp8
 70
     1
102
RTVSPropertyOp9
 70
     1
102
RTVSPropertyOp10
 70
     1
102
RTVSPropertyOp11
 70
     1
102
RTVSPropertyOp12
 70
     1
102
RTVSPropertyOp13
 70
     1
102
RTVSPropertyOp14
 70
     1
102
RTVSPropertyOp15
 70
     1
102
RTVSPropertyOp16
 70
     1
102
RTVSPropertyOp17
 70
     1
102
RTVSPropertyOp18
 70
     1
102
RTVSPropertyOp19
 70
     1
102
RTVSPropertyOp20
 70
     1
102
RTVSPropertyOp21
 70
     1
102
RTVSPropertyOp22
 70
     1
102
RTVSPropertyOp23
 70
     1
102
RTVSPropertyOp24
 70
     1
102
RTVSPropertyOp25
 70
     1
102
RTVSPropertyOp26
 70
     1
102
RTVSPropertyOp27
 70
     1
102
RTVSPropertyOp28
 70
     1
102
RTVSPropertyOp29
 70
     1
102
RTVSPropertyOp30
 70
     1
102
RTVSPropertyOp31
 70
     1
102
RTVSPropertyOp32
 70
     1
102
RTVSPropertyOp33
 70
     1
102
RTVSPropertyOp34
 70
     1
102
RTVSPropertyOp35
 70
     1
102
RTVSPropertyOp36
 70
     1
102
RTVSPropertyOp37
 70
     1
102
RTVSPropertyOp38
 70
     1
102
RTVSPropertyOp39
 70
     1
102
RTVSPropertyOp40
 70
     1
102
RTVSPropertyOp41
 70
     1
102
RTVSPropertyOp42
 70
     1
102
RTVSPropertyOp43
 70
     1
102
RTVSPropertyOp44
 70
     1
102
RTVSPropertyOp45
 70
     1
102
RTVSPropertyOp46
 70
     1
102
RTVSPropertyOp47
 70
     1
102
RTVSPropertyOp48
 70
     1
102
RTVSPropertyOp49
 70
     1
102
RTVSPropertyOp50
 70
     1
102
RTVSPropertyOp51
 70
     0
102
RTVSPropertyOp52
 70
     0
102
RTVSPropertyOp53
 70
     1
102
RTVSPropertyOp54
 70
     1
102
RTVSPropertyOp55
 70
     1
102
RTVSPropertyOp56
 70
     1
102
RTVSPropertyOp57
 70
     1
102
RTVSPropertyOp58
 70
     1
102
RTVSPropertyOp59
 70
     1
102
RTVSPropertyOp60
 70
     1
102
RTVSPropertyOp61
 70
     1
102
RTVSPropertyOp62
 70
     1
  0
XRECORD
  5
BEA
102
{ACAD_REACTORS
330
BE9
102
}
330
BE9
100
AcDbXrecord
280
     1
102
RTVSPost2010Prop28
280
     0
102
RTVSPost2010PropOp28
 70
     1
102
RTVSPost2010Prop29
280
     1
102
RTVSPost2010PropOp29
 70
     1
102
RTVSPost2010Prop30
280
     1
102
RTVSPost2010PropOp30
 70
     1
102
RTVSPost2010Prop31
280
     0
102
RTVSPost2010PropOp31
 70
     1
102
RTVSPost2010Prop32
280
     0
102
RTVSPost2010PropOp32
 70
     1
102
RTVSPost2010Prop33
280
     0
102
RTVSPost2010PropOp33
 70
     1
102
RTVSPost2010Prop34
280
     0
102
RTVSPost2010PropOp34
 70
     1
102
RTVSPost2010Prop35
280
     0
102
RTVSPost2010PropOp35
 70
     1
102
RTVSPost2010Prop36
280
     0
102
RTVSPost2010PropOp36
 70
     1
102
RTVSPost2010Prop37
 90
       50
102
RTVSPost2010PropOp37
 70
     1
102
RTVSPost2010Prop38
140
0.0
102
RTVSPost2010PropOp38
 70
     1
102
RTVSPost2010Prop39
140
1.0
102
RTVSPost2010PropOp39
 70
     1
102
RTVSPost2010Prop40
 90
        0
102
RTVSPost2010PropOp40
 70
     1
102
RTVSPost2010Prop41ColorIndex
 90
       18
102
RTVSPost2010Prop41ColorRGB
 90
        0
102
RTVSPost2010PropOp41
 70
     1
102
RTVSPost2010Prop42
 90
       50
102
RTVSPost2010PropOp42
 70
     1
102
RTVSPost2010Prop43
 90
        3
102
RTVSPost2010PropOp43
 70
     1
102
RTVSPost2010Prop44ColorIndex
 90
        5
102
RTVSPost2010Prop44ColorRGB
 90
      255
102
RTVSPost2010PropOp44
 70
     1
102
RTVSPost2010Prop45
280
     0
102
RTVSPost2010PropOp45
 70
     1
102
RTVSPost2010Prop46
 90
       50
102
RTVSPost2010PropOp46
 70
     1
102
RTVSPost2010Prop47
 90
       50
102
RTVSPost2010PropOp47
 70
     1
102
RTVSPost2010Prop48
 90
       50
102
RTVSPost2010PropOp48
 70
     1
102
RTVSPost2010Prop49
280
     0
102
RTVSPost2010PropOp49
 70
     1
102
RTVSPost2010Prop50
 90
       50
102
RTVSPost2010PropOp50
 70
     1
102
RTVSPost2010Prop51ColorIndex
 90
      256
102
RTVSPost2010Prop51ColorRGB
 90
-16777216
102
RTVSPost2010PropOp51
 70
     0
102
RTVSPost2010Prop52
140
1.0
102
RTVSPost2010PropOp52
 70
     0
102
RTVSPost2010Prop53
 90
        2
102
RTVSPost2010PropOp53
 70
     1
102
RTVSPost2010Prop54
  1
strokes_ogs.tif
102
RTVSPost2010PropOp54
 70
     1
102
RTVSPost2010Prop55
280
     0
102
RTVSPost2010PropOp55
 70
     1
102
RTVSPost2010Prop56
140
1.0
102
RTVSPost2010PropOp56
 70
     1
102
RTVSPost2010Prop57
140
1.0
102
RTVSPost2010PropOp57
 70
     1
102
RTVSPropertyOp0
 70
     1
102
RTVSPropertyOp1
 70
     1
102
RTVSPropertyOp2
 70
     1
102
RTVSPropertyOp3
 70
     1
102
RTVSPropertyOp4
 70
     1
102
RTVSPropertyOp5
 70
     1
102
RTVSPropertyOp6
 70
     1
102
RTVSPropertyOp7
 70
     1
102
RTVSPropertyOp8
 70
     1
102
RTVSPropertyOp9
 70
     1
102
RTVSPropertyOp10
 70
     1
102
RTVSPropertyOp11
 70
     1
102
RTVSPropertyOp12
 70
     1
102
RTVSPropertyOp13
 70
     1
102
RTVSPropertyOp14
 70
     1
102
RTVSPropertyOp15
 70
     1
102
RTVSPropertyOp16
 70
     1
102
RTVSPropertyOp17
 70
     1
102
RTVSPropertyOp18
 70
     1
102
RTVSPropertyOp19
 70
     1
102
RTVSPropertyOp20
 70
     1
102
RTVSPropertyOp21
 70
     1
102
RTVSPropertyOp22
 70
     1
102
RTVSPropertyOp23
 70
     1
102
RTVSPropertyOp24
 70
     1
102
RTVSPropertyOp25
 70
     1
102
RTVSPropertyOp26
 70
     1
102
RTVSPropertyOp27
 70
     1
102
RTVSPropertyOp28
 70
     1
102
RTVSPropertyOp29
 70
     1
102
RTVSPropertyOp30
 70
     1
102
RTVSPropertyOp31
 70
     1
102
RTVSPropertyOp32
 70
     1
102
RTVSPropertyOp33
 70
     1
102
RTVSPropertyOp34
 70
     1
102
RTVSPropertyOp35
 70
     1
102
RTVSPropertyOp36
 70
     1
102
RTVSPropertyOp37
 70
     1
102
RTVSPropertyOp38
 70
     1
102
RTVSPropertyOp39
 70
     1
102
RTVSPropertyOp40
 70
     1
102
RTVSPropertyOp41
 70
     1
102
RTVSPropertyOp42
 70
     1
102
RTVSPropertyOp43
 70
     1
102
RTVSPropertyOp44
 70
     1
102
RTVSPropertyOp45
 70
     1
102
RTVSPropertyOp46
 70
     1
102
RTVSPropertyOp47
 70
     1
102
RTVSPropertyOp48
 70
     1
102
RTVSPropertyOp49
 70
     1
102
RTVSPropertyOp50
 70
     1
102
RTVSPropertyOp51
 70
     0
102
RTVSPropertyOp52
 70
     0
102
RTVSPropertyOp53
 70
     1
102
RTVSPropertyOp54
 70
     1
102
RTVSPropertyOp55
 70
     1
102
RTVSPropertyOp56
 70
     1
102
RTVSPropertyOp57
 70
     1
102
RTVSPropertyOp58
 70
     1
102
RTVSPropertyOp59
 70
     1
102
RTVSPropertyOp60
 70
     1
102
RTVSPropertyOp61
 70
     1
102
RTVSPropertyOp62
 70
     1
  0
XRECORD
  5
BE0
102
{ACAD_REACTORS
330
BDF
102
}
330
BDF
100
AcDbXrecord
280
     1
102
RTVSPost2010Prop28
280
     0
102
RTVSPost2010PropOp28
 70
     1
102
RTVSPost2010Prop29
280
     1
102
RTVSPost2010PropOp29
 70
     1
102
RTVSPost2010Prop30
280
     1
102
RTVSPost2010PropOp30
 70
     1
102
RTVSPost2010Prop31
280
     0
102
RTVSPost2010PropOp31
 70
     1
102
RTVSPost2010Prop32
280
     0
102
RTVSPost2010PropOp32
 70
     1
102
RTVSPost2010Prop33
280
     0
102
RTVSPost2010PropOp33
 70
     1
102
RTVSPost2010Prop34
280
     0
102
RTVSPost2010PropOp34
 70
     1
102
RTVSPost2010Prop35
280
     0
102
RTVSPost2010PropOp35
 70
     1
102
RTVSPost2010Prop36
280
     0
102
RTVSPost2010PropOp36
 70
     1
102
RTVSPost2010Prop37
 90
       50
102
RTVSPost2010PropOp37
 70
     1
102
RTVSPost2010Prop38
140
0.0
102
RTVSPost2010PropOp38
 70
     1
102
RTVSPost2010Prop39
140
1.0
102
RTVSPost2010PropOp39
 70
     1
102
RTVSPost2010Prop40
 90
        0
102
RTVSPost2010PropOp40
 70
     1
102
RTVSPost2010Prop41ColorIndex
 90
       18
102
RTVSPost2010Prop41ColorRGB
 90
        0
102
RTVSPost2010PropOp41
 70
     1
102
RTVSPost2010Prop42
 90
       50
102
RTVSPost2010PropOp42
 70
     1
102
RTVSPost2010Prop43
 90
        3
102
RTVSPost2010PropOp43
 70
     1
102
RTVSPost2010Prop44ColorIndex
 90
        5
102
RTVSPost2010Prop44ColorRGB
 90
      255
102
RTVSPost2010PropOp44
 70
     1
102
RTVSPost2010Prop45
280
     0
102
RTVSPost2010PropOp45
 70
     1
102
RTVSPost2010Prop46
 90
       50
102
RTVSPost2010PropOp46
 70
     1
102
RTVSPost2010Prop47
 90
       50
102
RTVSPost2010PropOp47
 70
     1
102
RTVSPost2010Prop48
 90
       50
102
RTVSPost2010PropOp48
 70
     1
102
RTVSPost2010Prop49
280
     0
102
RTVSPost2010PropOp49
 70
     1
102
RTVSPost2010Prop50
 90
       50
102
RTVSPost2010PropOp50
 70
     1
102
RTVSPost2010Prop51ColorIndex
 90
      256
102
RTVSPost2010Prop51ColorRGB
 90
-16777216
102
RTVSPost2010PropOp51
 70
     0
102
RTVSPost2010Prop52
140
1.0
102
RTVSPost2010PropOp52
 70
     0
102
RTVSPost2010Prop53
 90
        2
102
RTVSPost2010PropOp53
 70
     1
102
RTVSPost2010Prop54
  1
strokes_ogs.tif
102
RTVSPost2010PropOp54
 70
     1
102
RTVSPost2010Prop55
280
     0
102
RTVSPost2010PropOp55
 70
     1
102
RTVSPost2010Prop56
140
1.0
102
RTVSPost2010PropOp56
 70
     1
102
RTVSPost2010Prop57
140
1.0
102
RTVSPost2010PropOp57
 70
     1
102
RTVSPropertyOp0
 70
     1
102
RTVSPropertyOp1
 70
     1
102
RTVSPropertyOp2
 70
     1
102
RTVSPropertyOp3
 70
     1
102
RTVSPropertyOp4
 70
     1
102
RTVSPropertyOp5
 70
     1
102
RTVSPropertyOp6
 70
     1
102
RTVSPropertyOp7
 70
     1
102
RTVSPropertyOp8
 70
     1
102
RTVSPropertyOp9
 70
     1
102
RTVSPropertyOp10
 70
     1
102
RTVSPropertyOp11
 70
     1
102
RTVSPropertyOp12
 70
     1
102
RTVSPropertyOp13
 70
     1
102
RTVSPropertyOp14
 70
     1
102
RTVSPropertyOp15
 70
     1
102
RTVSPropertyOp16
 70
     1
102
RTVSPropertyOp17
 70
     1
102
RTVSPropertyOp18
 70
     1
102
RTVSPropertyOp19
 70
     1
102
RTVSPropertyOp20
 70
     1
102
RTVSPropertyOp21
 70
     1
102
RTVSPropertyOp22
 70
     1
102
RTVSPropertyOp23
 70
     1
102
RTVSPropertyOp24
 70
     1
102
RTVSPropertyOp25
 70
     1
102
RTVSPropertyOp26
 70
     1
102
RTVSPropertyOp27
 70
     1
102
RTVSPropertyOp28
 70
     1
102
RTVSPropertyOp29
 70
     1
102
RTVSPropertyOp30
 70
     1
102
RTVSPropertyOp31
 70
     1
102
RTVSPropertyOp32
 70
     1
102
RTVSPropertyOp33
 70
     1
102
RTVSPropertyOp34
 70
     1
102
RTVSPropertyOp35
 70
     1
102
RTVSPropertyOp36
 70
     1
102
RTVSPropertyOp37
 70
     1
102
RTVSPropertyOp38
 70
     1
102
RTVSPropertyOp39
 70
     1
102
RTVSPropertyOp40
 70
     1
102
RTVSPropertyOp41
 70
     1
102
RTVSPropertyOp42
 70
     1
102
RTVSPropertyOp43
 70
     1
102
RTVSPropertyOp44
 70
     1
102
RTVSPropertyOp45
 70
     1
102
RTVSPropertyOp46
 70
     1
102
RTVSPropertyOp47
 70
     1
102
RTVSPropertyOp48
 70
     1
102
RTVSPropertyOp49
 70
     1
102
RTVSPropertyOp50
 70
     1
102
RTVSPropertyOp51
 70
     0
102
RTVSPropertyOp52
 70
     0
102
RTVSPropertyOp53
 70
     1
102
RTVSPropertyOp54
 70
     1
102
RTVSPropertyOp55
 70
     1
102
RTVSPropertyOp56
 70
     1
102
RTVSPropertyOp57
 70
     1
102
RTVSPropertyOp58
 70
     1
102
RTVSPropertyOp59
 70
     1
102
RTVSPropertyOp60
 70
     1
102
RTVSPropertyOp61
 70
     1
102
RTVSPropertyOp62
 70
     1
  0
XRECORD
  5
BD4
102
{ACAD_REACTORS
330
BD3
102
}
330
BD3
100
AcDbXrecord
280
     1
102
RTVSPost2010Prop28
280
     0
102
RTVSPost2010PropOp28
 70
     1
102
RTVSPost2010Prop29
280
     1
102
RTVSPost2010PropOp29
 70
     1
102
RTVSPost2010Prop30
280
     1
102
RTVSPost2010PropOp30
 70
     1
102
RTVSPost2010Prop31
280
     0
102
RTVSPost2010PropOp31
 70
     1
102
RTVSPost2010Prop32
280
     0
102
RTVSPost2010PropOp32
 70
     1
102
RTVSPost2010Prop33
280
     0
102
RTVSPost2010PropOp33
 70
     1
102
RTVSPost2010Prop34
280
     0
102
RTVSPost2010PropOp34
 70
     1
102
RTVSPost2010Prop35
280
     0
102
RTVSPost2010PropOp35
 70
     1
102
RTVSPost2010Prop36
280
     0
102
RTVSPost2010PropOp36
 70
     1
102
RTVSPost2010Prop37
 90
       50
102
RTVSPost2010PropOp37
 70
     1
102
RTVSPost2010Prop38
140
0.0
102
RTVSPost2010PropOp38
 70
     1
102
RTVSPost2010Prop39
140
1.0
102
RTVSPost2010PropOp39
 70
     1
102
RTVSPost2010Prop40
 90
        0
102
RTVSPost2010PropOp40
 70
     1
102
RTVSPost2010Prop41ColorIndex
 90
       18
102
RTVSPost2010Prop41ColorRGB
 90
        0
102
RTVSPost2010PropOp41
 70
     1
102
RTVSPost2010Prop42
 90
       50
102
RTVSPost2010PropOp42
 70
     1
102
RTVSPost2010Prop43
 90
        3
102
RTVSPost2010PropOp43
 70
     1
102
RTVSPost2010Prop44ColorIndex
 90
        5
102
RTVSPost2010Prop44ColorRGB
 90
      255
102
RTVSPost2010PropOp44
 70
     1
102
RTVSPost2010Prop45
280
     0
102
RTVSPost2010PropOp45
 70
     1
102
RTVSPost2010Prop46
 90
       50
102
RTVSPost2010PropOp46
 70
     1
102
RTVSPost2010Prop47
 90
       50
102
RTVSPost2010PropOp47
 70
     1
102
RTVSPost2010Prop48
 90
       50
102
RTVSPost2010PropOp48
 70
     1
102
RTVSPost2010Prop49
280
     0
102
RTVSPost2010PropOp49
 70
     1
102
RTVSPost2010Prop50
 90
       50
102
RTVSPost2010PropOp50
 70
     1
102
RTVSPost2010Prop51ColorIndex
 90
      256
102
RTVSPost2010Prop51ColorRGB
 90
-16777216
102
RTVSPost2010PropOp51
 70
     0
102
RTVSPost2010Prop52
140
1.0
102
RTVSPost2010PropOp52
 70
     0
102
RTVSPost2010Prop53
 90
        2
102
RTVSPost2010PropOp53
 70
     1
102
RTVSPost2010Prop54
  1
strokes_ogs.tif
102
RTVSPost2010PropOp54
 70
     1
102
RTVSPost2010Prop55
280
     0
102
RTVSPost2010PropOp55
 70
     1
102
RTVSPost2010Prop56
140
1.0
102
RTVSPost2010PropOp56
 70
     1
102
RTVSPost2010Prop57
140
1.0
102
RTVSPost2010PropOp57
 70
     1
102
RTVSPropertyOp0
 70
     1
102
RTVSPropertyOp1
 70
     1
102
RTVSPropertyOp2
 70
     1
102
RTVSPropertyOp3
 70
     1
102
RTVSPropertyOp4
 70
     1
102
RTVSPropertyOp5
 70
     1
102
RTVSPropertyOp6
 70
     1
102
RTVSPropertyOp7
 70
     1
102
RTVSPropertyOp8
 70
     1
102
RTVSPropertyOp9
 70
     1
102
RTVSPropertyOp10
 70
     1
102
RTVSPropertyOp11
 70
     1
102
RTVSPropertyOp12
 70
     1
102
RTVSPropertyOp13
 70
     1
102
RTVSPropertyOp14
 70
     1
102
RTVSPropertyOp15
 70
     1
102
RTVSPropertyOp16
 70
     1
102
RTVSPropertyOp17
 70
     1
102
RTVSPropertyOp18
 70
     1
102
RTVSPropertyOp19
 70
     1
102
RTVSPropertyOp20
 70
     1
102
RTVSPropertyOp21
 70
     1
102
RTVSPropertyOp22
 70
     1
102
RTVSPropertyOp23
 70
     1
102
RTVSPropertyOp24
 70
     1
102
RTVSPropertyOp25
 70
     1
102
RTVSPropertyOp26
 70
     1
102
RTVSPropertyOp27
 70
     1
102
RTVSPropertyOp28
 70
     1
102
RTVSPropertyOp29
 70
     1
102
RTVSPropertyOp30
 70
     1
102
RTVSPropertyOp31
 70
     1
102
RTVSPropertyOp32
 70
     1
102
RTVSPropertyOp33
 70
     1
102
RTVSPropertyOp34
 70
     1
102
RTVSPropertyOp35
 70
     1
102
RTVSPropertyOp36
 70
     1
102
RTVSPropertyOp37
 70
     1
102
RTVSPropertyOp38
 70
     1
102
RTVSPropertyOp39
 70
     1
102
RTVSPropertyOp40
 70
     1
102
RTVSPropertyOp41
 70
     1
102
RTVSPropertyOp42
 70
     1
102
RTVSPropertyOp43
 70
     1
102
RTVSPropertyOp44
 70
     1
102
RTVSPropertyOp45
 70
     1
102
RTVSPropertyOp46
 70
     1
102
RTVSPropertyOp47
 70
     1
102
RTVSPropertyOp48
 70
     1
102
RTVSPropertyOp49
 70
     1
102
RTVSPropertyOp50
 70
     1
102
RTVSPropertyOp51
 70
     0
102
RTVSPropertyOp52
 70
     0
102
RTVSPropertyOp53
 70
     1
102
RTVSPropertyOp54
 70
     1
102
RTVSPropertyOp55
 70
     1
102
RTVSPropertyOp56
 70
     1
102
RTVSPropertyOp57
 70
     1
102
RTVSPropertyOp58
 70
     1
102
RTVSPropertyOp59
 70
     1
102
RTVSPropertyOp60
 70
     1
102
RTVSPropertyOp61
 70
     1
102
RTVSPropertyOp62
 70
     1
  0
XRECORD
  5
BEC
102
{ACAD_REACTORS
330
BEB
102
}
330
BEB
100
AcDbXrecord
280
     1
102
RTVSPost2010Prop28
280
     0
102
RTVSPost2010PropOp28
 70
     1
102
RTVSPost2010Prop29
280
     1
102
RTVSPost2010PropOp29
 70
     1
102
RTVSPost2010Prop30
280
     1
102
RTVSPost2010PropOp30
 70
     1
102
RTVSPost2010Prop31
280
     0
102
RTVSPost2010PropOp31
 70
     1
102
RTVSPost2010Prop32
280
     0
102
RTVSPost2010PropOp32
 70
     1
102
RTVSPost2010Prop33
280
     0
102
RTVSPost2010PropOp33
 70
     1
102
RTVSPost2010Prop34
280
     0
102
RTVSPost2010PropOp34
 70
     1
102
RTVSPost2010Prop35
280
     0
102
RTVSPost2010PropOp35
 70
     1
102
RTVSPost2010Prop36
280
     0
102
RTVSPost2010PropOp36
 70
     1
102
RTVSPost2010Prop37
 90
       50
102
RTVSPost2010PropOp37
 70
     1
102
RTVSPost2010Prop38
140
0.0
102
RTVSPost2010PropOp38
 70
     1
102
RTVSPost2010Prop39
140
1.0
102
RTVSPost2010PropOp39
 70
     1
102
RTVSPost2010Prop40
 90
        0
102
RTVSPost2010PropOp40
 70
     1
102
RTVSPost2010Prop41ColorIndex
 90
       18
102
RTVSPost2010Prop41ColorRGB
 90
        0
102
RTVSPost2010PropOp41
 70
     1
102
RTVSPost2010Prop42
 90
       50
102
RTVSPost2010PropOp42
 70
     1
102
RTVSPost2010Prop43
 90
        3
102
RTVSPost2010PropOp43
 70
     1
102
RTVSPost2010Prop44ColorIndex
 90
        5
102
RTVSPost2010Prop44ColorRGB
 90
      255
102
RTVSPost2010PropOp44
 70
     1
102
RTVSPost2010Prop45
280
     0
102
RTVSPost2010PropOp45
 70
     1
102
RTVSPost2010Prop46
 90
       50
102
RTVSPost2010PropOp46
 70
     1
102
RTVSPost2010Prop47
 90
       50
102
RTVSPost2010PropOp47
 70
     1
102
RTVSPost2010Prop48
 90
       50
102
RTVSPost2010PropOp48
 70
     1
102
RTVSPost2010Prop49
280
     0
102
RTVSPost2010PropOp49
 70
     1
102
RTVSPost2010Prop50
 90
       50
102
RTVSPost2010PropOp50
 70
     1
102
RTVSPost2010Prop51ColorIndex
 90
      256
102
RTVSPost2010Prop51ColorRGB
 90
-16777216
102
RTVSPost2010PropOp51
 70
     0
102
RTVSPost2010Prop52
140
1.0
102
RTVSPost2010PropOp52
 70
     0
102
RTVSPost2010Prop53
 90
        2
102
RTVSPost2010PropOp53
 70
     1
102
RTVSPost2010Prop54
  1
strokes_ogs.tif
102
RTVSPost2010PropOp54
 70
     1
102
RTVSPost2010Prop55
280
     0
102
RTVSPost2010PropOp55
 70
     1
102
RTVSPost2010Prop56
140
1.0
102
RTVSPost2010PropOp56
 70
     1
102
RTVSPost2010Prop57
140
1.0
102
RTVSPost2010PropOp57
 70
     1
102
RTVSPropertyOp0
 70
     1
102
RTVSPropertyOp1
 70
     1
102
RTVSPropertyOp2
 70
     1
102
RTVSPropertyOp3
 70
     1
102
RTVSPropertyOp4
 70
     1
102
RTVSPropertyOp5
 70
     1
102
RTVSPropertyOp6
 70
     1
102
RTVSPropertyOp7
 70
     1
102
RTVSPropertyOp8
 70
     1
102
RTVSPropertyOp9
 70
     1
102
RTVSPropertyOp10
 70
     1
102
RTVSPropertyOp11
 70
     1
102
RTVSPropertyOp12
 70
     1
102
RTVSPropertyOp13
 70
     1
102
RTVSPropertyOp14
 70
     1
102
RTVSPropertyOp15
 70
     1
102
RTVSPropertyOp16
 70
     1
102
RTVSPropertyOp17
 70
     1
102
RTVSPropertyOp18
 70
     1
102
RTVSPropertyOp19
 70
     1
102
RTVSPropertyOp20
 70
     1
102
RTVSPropertyOp21
 70
     1
102
RTVSPropertyOp22
 70
     1
102
RTVSPropertyOp23
 70
     1
102
RTVSPropertyOp24
 70
     1
102
RTVSPropertyOp25
 70
     1
102
RTVSPropertyOp26
 70
     1
102
RTVSPropertyOp27
 70
     1
102
RTVSPropertyOp28
 70
     1
102
RTVSPropertyOp29
 70
     1
102
RTVSPropertyOp30
 70
     1
102
RTVSPropertyOp31
 70
     1
102
RTVSPropertyOp32
 70
     1
102
RTVSPropertyOp33
 70
     1
102
RTVSPropertyOp34
 70
     1
102
RTVSPropertyOp35
 70
     1
102
RTVSPropertyOp36
 70
     1
102
RTVSPropertyOp37
 70
     1
102
RTVSPropertyOp38
 70
     1
102
RTVSPropertyOp39
 70
     1
102
RTVSPropertyOp40
 70
     1
102
RTVSPropertyOp41
 70
     1
102
RTVSPropertyOp42
 70
     1
102
RTVSPropertyOp43
 70
     1
102
RTVSPropertyOp44
 70
     1
102
RTVSPropertyOp45
 70
     1
102
RTVSPropertyOp46
 70
     1
102
RTVSPropertyOp47
 70
     1
102
RTVSPropertyOp48
 70
     1
102
RTVSPropertyOp49
 70
     1
102
RTVSPropertyOp50
 70
     1
102
RTVSPropertyOp51
 70
     0
102
RTVSPropertyOp52
 70
     0
102
RTVSPropertyOp53
 70
     1
102
RTVSPropertyOp54
 70
     1
102
RTVSPropertyOp55
 70
     1
102
RTVSPropertyOp56
 70
     1
102
RTVSPropertyOp57
 70
     1
102
RTVSPropertyOp58
 70
     1
102
RTVSPropertyOp59
 70
     1
102
RTVSPropertyOp60
 70
     1
102
RTVSPropertyOp61
 70
     1
102
RTVSPropertyOp62
 70
     1
  0
ENDSEC
  0
EOF
